img image001 image001 image001 image001 image001 image001 image001 image001 image001 image001 image001 image001 image001 image001 image001 image001

Planets Sun Sun Sun
Статистика раздачи
Автор: Снежана | Размер: 303.62 МБ | Добавлен: 09 окт 2018
Раздают: 0    Качают: 0
Скачать торрент
Скачать торрент
Описание торрента

СообщениеДобавлено: 09 окт 2018 

Информация о фильме
Название: Симпсоны
Оригинальное название: The Simpsons
Год выхода: 2018
Жанр: Комедия, сатира
Режиссер: Марк Керклэнд, Стивен Дин Мур, Боб Андерсон
В ролях: Дэн Кастелланета, Джули Кавнер, Нэнси Картрайт, Ярдли Смит, Гарри Ширер, Хэнк Азария, Памела Хейден, Тресс МакНилл, Карл Видерготт, Мэгги Росвэлл и др.
О фильме:
«Симпсоны» - это пародия на всех и вся, и на типичный американский уклад жизни в целом. Главные герои этого мультсериала - показательная в своей типичности семья Симпсонов - обжора и лежебока, недалекий Гомер, его жена-умница домохозяйка Мардж, их дети сорванец Барт, одаренная умная девочка Лиза и совсем еще младенец Мэгги. Каждая серия не только богата юмором, но и высмеивает одну из волнующих современного человека тем, так что сериал с успехом пережил более 25 сезонов и продолжает успешное шествие по экранам. Отрезки, шутки, сами герои Симпсонов стали неотъемлемой частью современной поп-культуры, а их имена стали именами нарицательными.

Страна: США
Продолжительность: ~ 00:22:00 серия
Перевод: Любительский (многоголосый закадровый) | OMSKBIRD records
Файл
Кодек: XviD
Качество: WEBRip
Видео: 720x400, 23.976 fps, ~1763 kbps, 0.26 bit/pixel
Звук:
Аудио rus: AC-3, 48 KHz, 2 ch, 192 kbps | OMSKBIRD records
Субтитры: отсутствуют
Реклама: присутствует
Семпл
General
Complete name : G:The.Simpsons.S30.WEBRip.OmskBirdThe.Simpsons.S30E01.WEBRip.OmskBird.avi
Format : AVI
Format/Info : Audio Video Interleave
File size : 304 MiB
Duration : 21 min 35 s
Overall bit rate : 1 965 kb/s
Writing application : VirtualDubMod 1.5.10.3 | www.virtualdub-fr.org || (build 2550/release)
Writing library : VirtualDubMod build 2550/release
Video
ID : 0
Format : MPEG-4 Visual
Format profile : Advanced Simple@L5
Format settings : BVOP1
Format settings, BVOP : 1
Format settings, QPel : No
Format settings, GMC : No warppoints
Format settings, Matrix : Default (MPEG)
Codec ID : XVID
Codec ID/Hint : XviD
Duration : 21 min 35 s
Bit rate : 1 764 kb/s
Width : 720 pixels
Height : 400 pixels
Display aspect ratio : 16:9
Frame rate : 23.976 (24000/1001) FPS
Original frame rate : 23.976 (23976/1000) FPS
Color space : YUV
Chroma subsampling : 4:2:0
Bit depth : 8 bits
Scan type : Progressive
Compression mode : Lossy
Bits/(Pixel*Frame) : 0.255
Stream size : 272 MiB (90%)
Writing library : XviD 1.2.1 (UTC 2008-12-04)
Audio
ID : 1
Format : AC-3
Format/Info : Audio Coding 3
Codec ID : 2000
Duration : 21 min 35 s
Bit rate mode : Constant
Bit rate : 192 kb/s
Channel(s) : 2 channels
Channel positions : Front: L R
Sampling rate : 48.0 kHz
Frame rate : 31.250 FPS (1536 SPF)
Bit depth : 16 bits
Compression mode : Lossy
Stream size : 29.7 MiB (10%)
Alignment : Split accross interleaves
Interleave, duration : 42 ms (1.00 video frame)
Interleave, preload duration : 500 ms
Service kind : Complete Main

Внимание! Раздача ведётся путём добавления новых серий; при каждом добавлении создётся новый торрент. Чтобы начать докачку новой серии, пользователям необходимо сделать следующее:
Остановить скачивание.
Удалить старый торрент у себя из клиента (старые серии удалять не надо).
Скачать новый торрент и запустить его у себя в клиенте вместо старого, при этом указать клиенту путь в старую папку куда и должно происходить скачивание новых серий.
Ваш клиент при этом должен произвести хеширование (проверку) старой папки (если не производит сам - помогите ему сделать это), и будет докачивать только те серии которых у вас ещё нет. Старые серии при этом не удаляются, а продолжают раздаваться!
Eсли вы уже удалили старые серии, то предотвратить повторную закачку старых серий можно, отжав галочку в соответсвующих местах при запуске нового торрента. По возможности, желательно не удалять старые серии как можно дольше чтобы релизёр не столько продолжал раздавать старые серии, а смог сконцентрироваться на новых.

Релиз от: OmckBird



   Похожие торренты   Торрент   Размер 
В этой теме нет новых непрочитанных сообщений. Симпсоны / The Simpsons [30x01 из 21] (2018) WEBRip 720p | OMSKBIRD

0 | 0

468.9 МБ

В этой теме нет новых непрочитанных сообщений. Симпсоны / The Simpsons [30x01 из 21] (2018) WEBRip 1080p | OMSKBIRD

0 | 0

698.23 МБ

В этой теме нет новых непрочитанных сообщений. Симпсоны / The Simpsons [30x01 из 21] (2018) WEBRip | ColdFilm

0 | 0

537.32 МБ

В этой теме нет новых непрочитанных сообщений. Симпсоны / The Simpsons [30x01-04 из 21] (2018) WEBRip | GreenРай Studio

0 | 0

1.06 ГБ

В этой теме нет новых непрочитанных сообщений. Симпсоны / The Simpsons [30x01 из 21] (2018) WEBRip 1080p | ColdFilm

0 | 0

1.41 ГБ

В этой теме нет новых непрочитанных сообщений. Симпсоны / The Simpsons [30x01 из 21] (2018) WEBRip 720p | ColdFilm

0 | 0

1.03 ГБ

В этой теме нет новых непрочитанных сообщений. Симпсоны / The Simpsons [30x01-02 из 21] (2018) WEBRip 1080p | Good People

0 | 0

1.3 ГБ




Вы не можете начинать темы
Вы не можете отвечать на сообщения
Вы не можете редактировать свои сообщения
Вы не можете удалять свои сообщения
Вы не можете добавлять вложения

Перейти:  
 Вход
ppkBB3cker v.2 © 2008-2014 @ PPK
[ Time : 0.020s | 16 Queries | GZIP : Off ]

cron