img image001 image001 image001 image001 image001 image001 image001 image001 image001 image001 image001 image001 image001 image001 image001 image001

Planets Sun Sun Sun
Статистика раздачи
Автор: Снежана | Размер: 698.23 МБ | Добавлен: 09 окт 2018
Раздают: 0    Качают: 0
Скачать торрент
Скачать торрент
Описание торрента

СообщениеДобавлено: 09 окт 2018 

Информация о фильме
Название: Симпсоны
Оригинальное название: The Simpsons
Год выхода: 2018
Жанр: Комедия, сатира
Режиссер: Марк Керклэнд, Стивен Дин Мур, Боб Андерсон
В ролях: Дэн Кастелланета, Джули Кавнер, Нэнси Картрайт, Ярдли Смит, Гарри Ширер, Хэнк Азария, Памела Хейден, Тресс МакНилл, Карл Видерготт, Мэгги Росвэлл и др.
О фильме:
«Симпсоны» - это пародия на всех и вся, и на типичный американский уклад жизни в целом. Главные герои этого мультсериала - показательная в своей типичности семья Симпсонов - обжора и лежебока, недалекий Гомер, его жена-умница домохозяйка Мардж, их дети сорванец Барт, одаренная умная девочка Лиза и совсем еще младенец Мэгги. Каждая серия не только богата юмором, но и высмеивает одну из волнующих современного человека тем, так что сериал с успехом пережил более 25 сезонов и продолжает успешное шествие по экранам. Отрезки, шутки, сами герои Симпсонов стали неотъемлемой частью современной поп-культуры, а их имена стали именами нарицательными.

Страна: США
Продолжительность: ~ 00:22:00 серия
Перевод: Любительский (многоголосый закадровый) | OMSKBIRD records
Файл
Кодек: MPEG-4 AVC/x.264
Качество: WEBRip 1080p
Видео: 1920x1080 (16:9), 23.976 fps, ~4267 kbps
Звук:
Аудио rus: AC-3, 48 KHz, 2 ch, 192 kbps | OMSKBIRD records
Субтитры: отсутствуют
Реклама: присутствует
Семпл
General
Unique ID : 282572488523649546877741292512291141462 (0xD4957B5165A9D0A1EBB5CA7329993756)
Complete name : G:The.Simpsons.S30.1080p.WEBRip.OmskBirdThe.Simpsons.S30E01.1080p.WEBRip.OmskBird.mkv
Format : Matroska
Format version : Version 4 / Version 2
File size : 698 MiB
Duration : 20 min 58 s
Overall bit rate : 4 653 kb/s
Encoded date : UTC 2018-10-02 03:31:41
Writing application : mkvmerge v27.0.0 ('Metropolis') 64-bit
Writing library : libebml v1.3.6 + libmatroska v1.4.9
Video
ID : 1
Format : AVC
Format/Info : Advanced Video Codec
Format profile : High@L4
Format settings : CABAC / 2 Ref Frames
Format settings, CABAC : Yes
Format settings, RefFrames : 2 frames
Codec ID : V_MPEG4/ISO/AVC
Duration : 20 min 58 s
Bit rate : 4 267 kb/s
Nominal bit rate : 4 920 kb/s
Width : 1 920 pixels
Height : 1 080 pixels
Display aspect ratio : 16:9
Frame rate mode : Constant
Frame rate : 23.976 (24000/1001) FPS
Original frame rate : 24.000 FPS
Color space : YUV
Chroma subsampling : 4:2:0
Bit depth : 8 bits
Scan type : Progressive
Bits/(Pixel*Frame) : 0.086
Stream size : 640 MiB (92%)
Writing library : x264 core 148 r2579M 73ae2d1
Encoding settings : cabac=1 / ref=2 / deblock=1:0:0 / analyse=0x3:0x113 / me=hex / subme=2 / psy=1 / psy_rd=1.00:0.00 / mixed_ref=0 / me_range=16 / chroma_me=1 / trellis=0 / 8x8dct=1 / cqm=0 / deadzone=21,11 / fast_pskip=1 / chroma_qp_offset=0 / threads=1 / lookahead_threads=1 / sliced_threads=0 / nr=250 / decimate=1 / interlaced=0 / bluray_compat=0 / stitchable=1 / constrained_intra=0 / bframes=0 / weightp=1 / keyint=250 / keyint_min=24 / scenecut=40 / intra_refresh=0 / rc_lookahead=10 / rc=2pass / mbtree=1 / bitrate=4920 / ratetol=1.0 / qcomp=0.60 / qpmin=5 / qpmax=69 / qpstep=4 / cplxblur=20.0 / qblur=0.5 / ip_ratio=1.40 / aq=1:1.00
Language : English
Default : Yes
Forced : No
Audio #1
ID : 2
Format : AC-3
Format/Info : Audio Coding 3
Codec ID : A_AC3
Duration : 20 min 58 s
Bit rate mode : Constant
Bit rate : 192 kb/s
Channel(s) : 2 channels
Channel positions : Front: L R
Sampling rate : 48.0 kHz
Frame rate : 31.250 FPS (1536 SPF)
Bit depth : 16 bits
Compression mode : Lossy
Stream size : 28.8 MiB (4%)
Title : OmskBird
Language : Russian
Service kind : Complete Main
Default : Yes
Forced : No
Audio #2
ID : 3
Format : AC-3
Format/Info : Audio Coding 3
Codec ID : A_AC3
Duration : 20 min 58 s
Bit rate mode : Constant
Bit rate : 192 kb/s
Channel(s) : 2 channels
Channel positions : Front: L R
Sampling rate : 48.0 kHz
Frame rate : 31.250 FPS (1536 SPF)
Bit depth : 16 bits
Compression mode : Lossy
Stream size : 28.8 MiB (4%)
Language : English
Service kind : Complete Main
Default : No
Forced : No

Внимание! Раздача ведётся путём добавления новых серий; при каждом добавлении создётся новый торрент. Чтобы начать докачку новой серии, пользователям необходимо сделать следующее:
Остановить скачивание.
Удалить старый торрент у себя из клиента (старые серии удалять не надо).
Скачать новый торрент и запустить его у себя в клиенте вместо старого, при этом указать клиенту путь в старую папку куда и должно происходить скачивание новых серий.
Ваш клиент при этом должен произвести хеширование (проверку) старой папки (если не производит сам - помогите ему сделать это), и будет докачивать только те серии которых у вас ещё нет. Старые серии при этом не удаляются, а продолжают раздаваться!
Eсли вы уже удалили старые серии, то предотвратить повторную закачку старых серий можно, отжав галочку в соответсвующих местах при запуске нового торрента. По возможности, желательно не удалять старые серии как можно дольше чтобы релизёр не столько продолжал раздавать старые серии, а смог сконцентрироваться на новых.

Релиз от: OmskBird



   Похожие торренты   Торрент   Размер 
В этой теме нет новых непрочитанных сообщений. Симпсоны / The Simpsons [30x01 из 21] (2018) WEBRip | OMSKBIRD

0 | 0

303.62 МБ

В этой теме нет новых непрочитанных сообщений. Симпсоны / The Simpsons [30x01 из 21] (2018) WEBRip 720p | OMSKBIRD

0 | 0

468.9 МБ

В этой теме нет новых непрочитанных сообщений. Симпсоны / The Simpsons [30x01 из 21] (2018) WEBRip 1080p | ColdFilm

0 | 0

1.41 ГБ

В этой теме нет новых непрочитанных сообщений. Симпсоны / The Simpsons [30x01-02 из 21] (2018) WEBRip 1080p | Good People

0 | 0

1.3 ГБ

В этой теме нет новых непрочитанных сообщений. Симпсоны / The Simpsons [30x01-04 из 21] (2018) WEBRip 1080p | GreenРай Studio

0 | 0

3.24 ГБ

В этой теме нет новых непрочитанных сообщений. Симпсоны / The Simpsons [30x01 из 21] (2018) WEBRip | ColdFilm

0 | 0

537.32 МБ

В этой теме нет новых непрочитанных сообщений. Симпсоны / The Simpsons [30x01-04 из 21] (2018) WEBRip | GreenРай Studio

0 | 0

1.06 ГБ




Вы не можете начинать темы
Вы не можете отвечать на сообщения
Вы не можете редактировать свои сообщения
Вы не можете удалять свои сообщения
Вы не можете добавлять вложения

Перейти:  
 Вход
ppkBB3cker v.2 © 2008-2014 @ PPK
[ Time : 0.030s | 16 Queries | GZIP : Off ]

cron