img image001 image001 image001 image001 image001 image001 image001 image001 image001 image001 image001 image001 image001 image001 image001 image001

Planets Sun Sun Sun
Статистика раздачи
Автор: Снежана | Размер: 744.52 МБ | Добавлен: 09 окт 2018
Раздают: 32    Качают: 0
Скачать торрент
Скачать торрент
Описание торрента

СообщениеДобавлено: 09 окт 2018 

Информация о фильме
Название: В ад и обратно
Оригинальное название: Hell and Back
Год выхода: 2015
Жанр: Мультфильм, комедия, приключения
Режиссеры: Том Джинас, Росс Шуман
В ролях: Ник Свардсон, Мила Кунис, Боб Оденкёрк, ТиДжей Миллер, Роб Риггл, Сьюзен Сарандон, Дэнни МакБрайд, Мария Бэмфорд, Лэнс Басс
О фильме: История о двух закадычных друзьях, которые должны спасти третьего участника их сплоченного коллектива после того, как тот по ошибке попал прямиком в Ад...

Страна: США
Студия: ShadowMachine Films
Продолжительность: 01:25:57
Перевод: Любительский (двухголосый, закадровый) | SinisterSound
Субтитры: Нет
ПРИСУТСТВУЕТ НЕНОРМАТИВНАЯ ЛЕКСИКА!
Файл
Кодек: XviD
Качество: WEB-DLRip
Видео: 656x368 (1.78:1), 23.976 fps, XviD build 73 ~1073 kbps avg, 0.19 bit/pixel
Звук: 48 kHz, MPEG Layer 3, 2 ch, ~128.00 kbps avg
General
Complete name : Hell.and.Back.2015.WEB-DLRip.ot.Portablius.avi
Format : AVI
Format/Info : Audio Video Interleave
File size : 745 MiB
Duration : 1 h 25 min
Overall bit rate : 1 211 kb/s
Writing application : VirtualDubMod 1.5.10.3 | www.virtualdub-fr.org || (build 2550/release)
Writing library : VirtualDubMod build 2550/release
Video
ID : 0
Format : MPEG-4 Visual
Format profile : Advanced Simple@L5
Format settings, BVOP : 1
Format settings, QPel : No
Format settings, GMC : No warppoints
Format settings, Matrix : Custom
Codec ID : XVID
Codec ID/Hint : XviD
Duration : 1 h 25 min
Bit rate : 1 074 kb/s
Width : 656 pixels
Height : 368 pixels
Display aspect ratio : 16:9
Frame rate : 23.976 (24000/1001) FPS
Color space : YUV
Chroma subsampling : 4:2:0
Bit depth : 8 bits
Scan type : Progressive
Compression mode : Lossy
Bits/(Pixel*Frame) : 0.186
Stream size : 660 MiB (89%)
Writing library : XviD 73
Audio
ID : 1
Format : MPEG Audio
Format version : Version 1
Format profile : Layer 3
Codec ID : 55
Codec ID/Hint : MP3
Duration : 1 h 25 min
Bit rate mode : Constant
Bit rate : 128 kb/s
Channel(s) : 2 channels
Sampling rate : 48.0 kHz
Compression mode : Lossy
Stream size : 78.7 MiB (11%)
Alignment : Aligned on interleaves
Interleave, duration : 42 ms (1.00 video frame)
Interleave, preload duratio : 504 ms
Writing library : LAME3.99r
Encoding settings : -m s -V 4 -q 2 -lowpass 17 -b 128



   Похожие торренты   Торрент   Размер 
В этой теме нет новых непрочитанных сообщений. В ад и обратно / Hell and Back (2015) WEB-DLRip | L2

65 | 3

1.37 ГБ

В этой теме нет новых непрочитанных сообщений. В ад и обратно / Hell and Back (2015) WEB-DL 720р | L2

58 | 4

2.74 ГБ

В этой теме нет новых непрочитанных сообщений. В ад и обратно / Hell and Back (2015) DVDRip | SinisterSound

2053 | 316

918.78 МБ

В этой теме нет новых непрочитанных сообщений. Painkiller: Back to the Hell [1.05] [2010-2015] PC

364 | 20

3.44 ГБ

В этой теме нет новых непрочитанных сообщений. Обратно на Землю / Down to Earth (2001) WEB-DLRip | Р2, Р, А

113 | 5

1.46 ГБ

В этой теме нет новых непрочитанных сообщений. Старый 37 / Old 37 (2015) WEB-DLRip от Portablius | L2

22 | 2

744.08 МБ

В этой теме нет новых непрочитанных сообщений. Владыка времени (2015) WEB-DLRip от Portablius

57 | 0

745.74 МБ




Вы не можете начинать темы
Вы не можете отвечать на сообщения
Вы не можете редактировать свои сообщения
Вы не можете удалять свои сообщения
Вы не можете добавлять вложения

Перейти:  
 Вход
ppkBB3cker v.2 © 2008-2014 @ PPK
[ Time : 0.032s | 15 Queries | GZIP : Off ]

cron