img image001 image001 image001 image001 image001 image001 image001 image001 image001 image001 image001 image001 image001 image001 image001 image001

Planets Sun Sun Sun
Статистика раздачи
Автор: Снежана | Размер: 8.23 ГБ | Добавлен: 09 окт 2018
Раздают: 4    Качают: 0
Скачать торрент
Скачать торрент
Описание торрента

СообщениеДобавлено: 09 окт 2018 

Информация о фильме
Название: Принц Египта
Оригинальное название: The Prince of Egypt
Год выпуска: 1998
Выпущено: США, DreamWorks SKG, DreamWorks Animation
Жанр: Мультфильм, музыкальный, приключения, драма, полнометражный
Режиссеры: Бренда Чэпман, Стив Хикнер, Саймон Уэллс
В ролях: Вэл Килмер, Рэйф Файнс, Мишель Пфайффер, Сандра Баллок, Джефф Голдблюм, Дэнни Гловер, Пэтрик Стюарт, Хелен Миррен, Стив Мартин, Мартин Шорт
О фильме: Эта история случилась на заре цивилизации в Древнем Египте. Стремительный и величавый Нил вынес на берег перед дворцом фараона корзину с младенцем. Могущественный правитель усыновил крошечного мальчика и дал ему имя Моисей. Шли годы... Моисей и его брат Рамзес росли вместе. Но придет день, когда один из братьев станет владыкой величайшей империи на земле, а другой - святым... Противоборство героев навсегда изменит их судьбы и историю человечества.
Продолжительность: 01:38:41
Перевод: Дублированный, профессиональный многоголосый, профессиональный двухголосый, авторский
Субтитры: Русские, английские
Навигация по главам: Есть
Файл
Качество: BDRip 1080p
Видео: MPEG-4 AVC, 9445 Кбит/сек, 1918x1040, 23,976 кадра/сек
Аудио #1: AC3, 2 ch, 192 Кбит/сек | Русский, профессиональный (полное дублирование) Пифагор
Аудио #2: AC3, 2 ch, 192 Кбит/сек | Русский, профессиональный (полное дублирование) Первый канал
Аудио #3: AC3, 2 ch, 192 Кбит/сек | Русский, профессиональный (двухголосый закадровый) Премьер Мультимедиа, Л.Ильина и В.Андреев
Аудио #4: AC3, 6 ch, 448 Кбит/сек | Русский, профессиональный (двухголосый закадровый)
Аудио #5: AC3, 6 ch, 448 Кбит/сек | Русский, авторский (одноголосый закадровый) Сергей Визгунов
Аудио #6: AC3, 2 ch, 192 Кбит/сек | Русский, авторский (одноголосый закадровый) Николай Антонов
Аудио #7: AC3, 2 ch, 192 Кбит/сек | Украинский, профессиональный (многоголосый закадровый) K1
Аудио #8: AC3, 6 ch, 640 Кбит/сек | Английский, оригинал


x264 [info]: frame I:731 Avg QP:15.71 size:172741
x264 [info]: frame P:31539 Avg QP:17.45 size: 85596
x264 [info]: frame B:109688 Avg QP:18.98 size: 37940
-----------------------------------------------------
Общее
Уникальный идентификатор : 246219597520338306699510054881424016405 (0xB93C2B6954295FDFB40A42EF92878415)
Полное имя : Принц.Египта.1998.BDRip.1080p.KORSAR.mkv
Формат : Matroska
Версия формата : Version 2
Размер файла : 8,23 Гбайт
Продолжительность : 1 ч. 38 м.
Общий поток : 11,9 Мбит/сек
Дата кодирования : UTC 2018-10-07 08:43:22
Программа кодирования : mkvmerge v5.8.0 ('No Sleep / Pillow') built on Sep 2 2012 15:37:04
Библиотека кодирования : libebml v1.2.3 + libmatroska v1.3.0
Видео
Идентификатор : 1
Формат : AVC
Формат/Информация : Advanced Video Codec
Профиль формата : High@L4.1
Настройки формата : CABAC / 4 Ref Frames
Параметр CABAC формата : Да
Параметр RefFrames формата : 4 кадра
Идентификатор кодека : V_MPEG4/ISO/AVC
Продолжительность : 1 ч. 38 м.
Битрейт : 9445 Кбит/сек
Ширина : 1918 пикселей
Высота : 1040 пикселей
Соотношение сторон : 1,85:1
Режим частоты кадров : Постоянный
Частота кадров : 23,976 (24000/1001) кадра/сек
Цветовое пространство : YUV
Субдискретизация насыщенности : 4:2:0
Битовая глубина : 8 бит
Тип развёртки : Прогрессивная
Бит/(Пиксели*Кадры) : 0.197
Размер потока : 6,35 Гбайт (77%)
Заголовок : RIP | MZMA
Библиотека кодирования : x264 core 152 r2851kMod ba24899
Настройки программы : cabac=1 / ref=4 / deblock=1:-3:-3 / analyse=0x3:0x113 / me=umh / subme=11 / psy=1 / fade_compensate=0.00 / psy_rd=1.00:0.00 / mixed_ref=1 / me_range=48 / chroma_me=1 / trellis=2 / 8x8dct=1 / cqm=0 / deadzone=21,11 / fast_pskip=0 / chroma_qp_offset=-2 / threads=6 / lookahead_threads=1 / sliced_threads=0 / nr=0 / decimate=0 / interlaced=0 / bluray_compat=0 / constrained_intra=0 / bframes=16 / b_pyramid=2 / b_adapt=2 / b_bias=0 / direct=3 / weightb=1 / open_gop=0 / weightp=2 / keyint=240 / keyint_min=23 / scenecut=40 / intra_refresh=0 / rc_lookahead=40 / rc=2pass / mbtree=0 / bitrate=9445 / ratetol=1.0 / qcomp=0.60 / qpmin=0 / qpmax=69 / qpstep=4 / cplxblur=20.0 / qblur=0.5 / vbv_maxrate=50000 / vbv_bufsize=62500 / nal_hrd=none / filler=0 / ip_ratio=1.25 / pb_ratio=1.30 / aq=3:0.90
Язык : English
По умолчанию : Да
Принудительно : Нет
Цветовой диапазон : Limited
Основные цвета : BT.709
Характеристики трансфера : BT.709
Коэффициенты матрицы : BT.709
Аудио #1
Идентификатор : 2
Формат : AC-3
Формат/Информация : Audio Coding 3
Идентификатор кодека : A_AC3
Продолжительность : 1 ч. 38 м.
Вид битрейта : Постоянный
Битрейт : 192 Кбит/сек
Каналы : 2 канала
Расположение каналов : Front: L R
Частота : 48,0 КГц
Частота кадров : 31,250 кадров/сек (1536 SPF)
Битовая глубина : 16 бит
Метод сжатия : С потерями
Размер потока : 136 Мбайт (2%)
Заголовок : DUB | Пифагор
Язык : Russian
По умолчанию : Да
Принудительно : Нет
Аудио #2
Идентификатор : 3
Формат : AC-3
Формат/Информация : Audio Coding 3
Идентификатор кодека : A_AC3
Продолжительность : 1 ч. 38 м.
Вид битрейта : Постоянный
Битрейт : 192 Кбит/сек
Каналы : 2 канала
Расположение каналов : Front: L R
Частота : 48,0 КГц
Частота кадров : 31,250 кадров/сек (1536 SPF)
Битовая глубина : 16 бит
Метод сжатия : С потерями
Размер потока : 136 Мбайт (2%)
Заголовок : DUB | Первый канал
Язык : Russian
По умолчанию : Нет
Принудительно : Нет
Аудио #3
Идентификатор : 4
Формат : AC-3
Формат/Информация : Audio Coding 3
Идентификатор кодека : A_AC3
Продолжительность : 1 ч. 38 м.
Вид битрейта : Постоянный
Битрейт : 192 Кбит/сек
Каналы : 2 канала
Расположение каналов : Front: L R
Частота : 48,0 КГц
Частота кадров : 31,250 кадров/сек (1536 SPF)
Битовая глубина : 16 бит
Метод сжатия : С потерями
Размер потока : 136 Мбайт (2%)
Заголовок : DVO | Премьер Мультимедиа, Л.Ильина и В.Андреев
Язык : Russian
По умолчанию : Нет
Принудительно : Нет
Аудио #4
Идентификатор : 5
Формат : AC-3
Формат/Информация : Audio Coding 3
Идентификатор кодека : A_AC3
Продолжительность : 1 ч. 38 м.
Вид битрейта : Постоянный
Битрейт : 448 Кбит/сек
Каналы : 6 каналов
Расположение каналов : Front: L C R, Side: L R, LFE
Частота : 48,0 КГц
Частота кадров : 31,250 кадров/сек (1536 SPF)
Битовая глубина : 16 бит
Метод сжатия : С потерями
Размер потока : 316 Мбайт (4%)
Заголовок : DVO
Язык : Russian
По умолчанию : Нет
Принудительно : Нет
Аудио #5
Идентификатор : 6
Формат : AC-3
Формат/Информация : Audio Coding 3
Идентификатор кодека : A_AC3
Продолжительность : 1 ч. 38 м.
Вид битрейта : Постоянный
Битрейт : 448 Кбит/сек
Каналы : 6 каналов
Расположение каналов : Front: L C R, Side: L R, LFE
Частота : 48,0 КГц
Частота кадров : 31,250 кадров/сек (1536 SPF)
Битовая глубина : 16 бит
Метод сжатия : С потерями
Размер потока : 316 Мбайт (4%)
Заголовок : AVO | С. Визгунов
Язык : Russian
По умолчанию : Нет
Принудительно : Нет
Аудио #6
Идентификатор : 7
Формат : AC-3
Формат/Информация : Audio Coding 3
Идентификатор кодека : A_AC3
Продолжительность : 1 ч. 38 м.
Вид битрейта : Постоянный
Битрейт : 192 Кбит/сек
Каналы : 1 канал
Расположение каналов : Front: C
Частота : 48,0 КГц
Частота кадров : 31,250 кадров/сек (1536 SPF)
Битовая глубина : 16 бит
Метод сжатия : С потерями
Размер потока : 136 Мбайт (2%)
Заголовок : AVO | Н. Антонов
Язык : Russian
По умолчанию : Нет
Принудительно : Нет
Аудио #7
Идентификатор : 8
Формат : AC-3
Формат/Информация : Audio Coding 3
Идентификатор кодека : A_AC3
Продолжительность : 1 ч. 38 м.
Вид битрейта : Постоянный
Битрейт : 192 Кбит/сек
Каналы : 2 канала
Расположение каналов : Front: L R
Частота : 48,0 КГц
Частота кадров : 31,250 кадров/сек (1536 SPF)
Битовая глубина : 16 бит
Метод сжатия : С потерями
Размер потока : 136 Мбайт (2%)
Заголовок : MVO | K1
Язык : Ukrainian
По умолчанию : Нет
Принудительно : Нет
Аудио #8
Идентификатор : 9
Формат : AC-3
Формат/Информация : Audio Coding 3
Идентификатор кодека : A_AC3
Продолжительность : 1 ч. 38 м.
Вид битрейта : Постоянный
Битрейт : 640 Кбит/сек
Каналы : 6 каналов
Расположение каналов : Front: L C R, Side: L R, LFE
Частота : 48,0 КГц
Частота кадров : 31,250 кадров/сек (1536 SPF)
Битовая глубина : 16 бит
Метод сжатия : С потерями
Размер потока : 452 Мбайт (5%)
Заголовок : Original
Язык : English
По умолчанию : Нет
Принудительно : Нет
Текст #1
Идентификатор : 10
Формат : UTF-8
Идентификатор кодека : S_TEXT/UTF8
Идентификатор кодека/Информация : UTF-8 Plain Text
Заголовок : Премьер Мультимедиа
Язык : Russian
По умолчанию : Нет
Принудительно : Нет
Текст #2
Идентификатор : 11
Формат : UTF-8
Идентификатор кодека : S_TEXT/UTF8
Идентификатор кодека/Информация : UTF-8 Plain Text
Заголовок : Павел Левковец
Язык : Russian
По умолчанию : Нет
Принудительно : Нет
Текст #3
Идентификатор : 12
Формат : UTF-8
Идентификатор кодека : S_TEXT/UTF8
Идентификатор кодека/Информация : UTF-8 Plain Text
Заголовок : SDH | 1
Язык : English
По умолчанию : Нет
Принудительно : Нет
Текст #4
Идентификатор : 13
Формат : UTF-8
Идентификатор кодека : S_TEXT/UTF8
Идентификатор кодека/Информация : UTF-8 Plain Text
Заголовок : SDH | 2
Язык : English
По умолчанию : Нет
Принудительно : Нет
Меню
00:00:00.000 : en:Deliver Us (Main Title)
00:04:14.679 : en:The River
00:08:14.679 : en:Chariot Race
00:11:07.679 : en:One Weak Link
00:13:33.679 : en:Rameses' Hiding Place
00:14:58.679 : en:Desert Flower
00:19:00.679 : en:You are Our Brother
00:22:19.679 : en:All I Ever Wanted
00:24:21.679 : en:Hieroglyph Nightmare
00:25:53.679 : en:Sacrifice
00:27:39.679 : en:This is Your Home
00:29:13.679 : en:Slavery
00:33:15.679 : en:The Sand Storm
00:37:23.679 : en:Through Heaven's Eyes
00:42:09.679 : en:Burning Bush
00:47:53.679 : en:The MIssion
00:50:50.679 : en:Let My People Go
00:53:43.679 : en:Playing with the Big Boys
00:56:56.679 : en:Rameses vs Moses
00:59:23.679 : en:Nile of Blood
01:05:10.679 : en:Plagues
01:08:12.679 : en:Ultimatum
01:12:14.679 : en:Death of the First Born
01:16:56.679 : en:When You Believe
01:22:23.679 : en:Parting The Red Sea
01:26:06.679 : en:The Closing of The Red Sea
01:29:12.679 : en:Goodbye Brother
01:31:29.679 : en:End Credits


Релиз от:



   Похожие торренты   Торрент   Размер 
В этой теме нет новых непрочитанных сообщений. Принц Египта / The Prince of Egypt (1998) BDRip 720p от KORSAR | D, P, P2, A

13 | 0

5.84 ГБ

В этой теме нет новых непрочитанных сообщений. Принц Египта / The Prince of Egypt (1998) WEBRip 1080p

12 | 0

7.4 ГБ

В этой теме нет новых непрочитанных сообщений. Принц Египта / The Prince of Egypt (1998) WEB-DL 720p

86 | 10

5.06 ГБ

В этой теме нет новых непрочитанных сообщений. Мумия: Принц Египта / Tale of the Mummy (1998) HDRip-AVC | P2

258 | 3

2.18 ГБ

В этой теме нет новых непрочитанных сообщений. Коралловый риф 3D: Подводный мир Египта / Adventure Coral Reef: Under the Sea of Egypt (2012) BDRip 1080p | 3D-Video | halfOU | Лицензия

191 | 9

6.95 ГБ

В этой теме нет новых непрочитанных сообщений. Коралловый риф: Подводный мир Египта / Adventure coral reef: Under the sea of Egypt (2012) BDRemux 1080p от ExKinoRay | P1

101 | 19

6.66 ГБ

В этой теме нет новых непрочитанных сообщений. Принц / The Prince (2014) BDRip 1080p | P

316 | 20

10.87 ГБ




Вы не можете начинать темы
Вы не можете отвечать на сообщения
Вы не можете редактировать свои сообщения
Вы не можете удалять свои сообщения
Вы не можете добавлять вложения

Перейти:  
 Вход
ppkBB3cker v.2 © 2008-2014 @ PPK
[ Time : 1.681s | 15 Queries | GZIP : Off ]

cron