img image001 image001 image001 image001 image001 image001 image001 image001 image001 image001 image001 image001 image001 image001 image001 image001

Planets Sun Sun Sun
Статистика раздачи
Автор: Снежана | Размер: 2.32 ГБ | Добавлен: 10 окт 2018
Раздают: 2    Качают: 4
Скачать торрент
Скачать торрент
Описание торрента

СообщениеДобавлено: 10 окт 2018 

Симпсоны / The Simpsons

Перевод: Профессиональный (многоголосый, закадровый) IdeaFilm
Субтитры: отсутствуют
Формат: WEBRip, MKV, h.264, AC3
Страна: США
Режиссер: Марк Керклэнд, Джефф Линч, Сьюзи Диттер, Мэтт Гроенинг,
Жанр: Комедия, мультсериал, семейный
Всего серий: 21
Продолжительность: 2х ~00:25:00
Год выпуска: 2018

В ролях: Дэн Кастелланета, Джули Кавнер, Нэнси Картрайт, Ярдли Смит, Гарри Ширер, Хэнк Азария, Памела Хейден, Тресс МакНилл, Карл Видерготт, Мэгги Росвэл

Описание: «Симпсоны» - это пародия на всех и вся, и на типичный американский уклад жизни в целом. Главные герои этого мультсериала - показательная в своей типичности семья Симпсонов - обжора и лежебока, недалекий Гомер, его жена-умница домохозяйка Мардж, их дети сорванец Барт, одаренная умная девочка Лиза и совсем еще младенец Мэгги. Каждая серия не только богата юмором, но и высмеивает одну из волнующих современного человека тем, так что сериал с успехом пережил более 25 сезонов и продолжает успешное шествие по экранам. Отрезки, шутки, сами герои Симпсонов стали неотъемлемой частью современной поп-культуры, а их имена стали именами нарицательными.


Рейтинг на:

Видео: 1920x1080 (16/9), 23,976 fps, AVC (х264), , ~6778 kbps avg, 0.136 bit/pixel
Аудио #1 Rus: :48 kHz, AC3 Dolby Digital, 3/2 (L,C,R,l,r) + LFE ch, ~384 kbps
Аудио #1 Eng: :48 kHz, AC3 Dolby Digital, 3/2 (L,C,R,l,r) + LFE ch, ~384 kbps

Внимание, присутствует реклама!


Внимание! Раздача ведётся путём добавления новых серий; при каждом добавлении создаётся новый торрент. Чтобы начать докачку новой серии, пользователям необходимо сделать следующее:
(1) остановить скачивание,
(2) удалить старый торрент у себя из клиента (старые серии удалять не надо),
(3) скачать новый торрент и запустить его у себя в клиенте вместо старого, при этом указать клиенту путь в старую папку куда и должно происходить скачивание новых серий.

Ваш клиент при этом должен произвести хеширование (проверку) старой папки (если не производит сам - помогите ему сделать это), и будет докачивать только те серии которых у вас ещё нет. Старые серии при этом не удаляются, а продолжают раздаваться!

Eсли вы уже удалили старые серии, то предотвратить повторную закачку старых серий можно, отжав галочку в соответствующих местах при запуске нового торрента. По возможности, желательно не удалять старые серии как можно дольше, чтобы релизёр не столько продолжал раздавать старые серии, а смог сконцентрироваться на новых.



Общее
Уникальный идентификатор : 192384760573683773342128949815080123481 (0x90BBF50607B74FC1A245DA651D6BFC59)
Полное имя : K:\IdeaFilm\The.Simpsons.S30.WEBRip.1080p\The.Simpsons.S30E01.WEBRip.1080p-IdeaFilm.mkv
Формат : Matroska
Версия формата : Version 4 / Version 2
Размер файла : 1,14 Гбайт
Продолжительность : 21 м. 38 с.
Общий поток : 7536 Кбит/сек
Дата кодирования : UTC 2018-10-02 18:00:47
Программа кодирования : mkvmerge v12.0.0 ('Trust / Lust') 64bit
Библиотека кодирования : libebml v1.3.4 + libmatroska v1.4.5

Видео
Идентификатор : 1
Формат : AVC
Формат/Информация : Advanced Video Codec
Профиль формата :
Настройки формата : CABAC / 4 Ref Frames
Параметр CABAC формата : Да
Параметр RefFrames формата : 4 кадра
Идентификатор кодека : V_MPEG4/ISO/AVC
Продолжительность : 21 м. 38 с.
Битрейт : 6778 Кбит/сек
Ширина : 1920 пикселей
Высота : 1080 пикселей
Соотношение сторон : 16:9
Режим частоты кадров : Постоянный
Частота кадров : 23,976 (24000/1001) кадра/сек
Стандарт вещания : NTSC
Цветовое пространство : YUV
Субдискретизация насыщенности : 4:2:0
Битовая глубина : 8 бит
Тип развёртки : Прогрессивная
Бит/(Пиксели*Кадры) : 0.136
Размер потока : 1,02 Гбайт (90%)
Заголовок : IdeaFilm
Язык : Russian
Default : Да
Forced : Нет
Цветовой диапазон : Limited
Основные цвета : BT.709
Характеристики трансфера : BT.709
Коэффициенты матрицы : BT.709

Аудио #1
Идентификатор : 2
Формат : AC-3
Формат/Информация : Audio Coding 3
Идентификатор кодека : A_AC3
Продолжительность : 21 м. 38 с.
Вид битрейта : Постоянный
Битрейт : 384 Кбит/сек
Каналы : 6 каналов
Расположение каналов : Front: L C R, Side: L R, LFE
Частота : 48,0 КГц
Частота кадров : 31,250 кадров/сек (1536 SPF)
Битовая глубина : 16 бит
Метод сжатия : С потерями
Размер потока : 59,5 Мбайт (5%)
ServiceKind/String : Complete Main
Default : Да
Forced : Нет

Аудио #2
Идентификатор : 3
Формат : AC-3
Формат/Информация : Audio Coding 3
Идентификатор кодека : A_AC3
Продолжительность : 20 м. 58 с.
Битрейт : 384 Кбит/сек
Каналы : 6 каналов
Частота : 48,0 КГц
Частота кадров : 31,250 кадров/сек (1536 SPF)
Метод сжатия : С потерями
Размер потока : 57,6 Мбайт (5%)
Язык : English
Default : Нет
Forced : Нет







   Похожие торренты   Торрент   Размер 
В этой теме нет новых непрочитанных сообщений. Симпсоны, 30 сезон 1-3 серия из 21 / The Simpsons (Марк Керклэнд, Джефф Линч, Сьюзи Диттер, Мэтт Гроенинг) [2018, Комедия, мультсериал, семейный, WEBRip 1080p] MVO

0 | 2

3.48 ГБ

В этой теме нет новых непрочитанных сообщений. Симпсоны, 30 сезон 1 серия из 21 / The Simpsons [IdeaFilm] (Марк Керклэнд, Джефф Линч, Сьюзи Диттер, Мэтт Гроенинг) [2018, Комедия, мультсериал, семейный, WEBRip 1080p, P]

4 | 5

1.14 ГБ

В этой теме нет новых непрочитанных сообщений. Симпсоны, 30 сезон 1-3 серия из 21 / The Simpsons (Марк Керклэнд, Джефф Линч, Сьюзи Диттер, Мэтт Гроенинг) [2018, Комедия, мультсериал, семейный, WEBRip] MVO

0 | 0

895.88 МБ

В этой теме нет новых непрочитанных сообщений. Симпсоны, 30 сезон 1-2 серия из 21 / The Simpsons (Марк Керклэнд, Джефф Линч, Сьюзи Диттер, Мэтт Гроенинг) [2018, Комедия, мультсериал, семейный, WEBRip] MVO

2 | 2

594.88 МБ

В этой теме нет новых непрочитанных сообщений. Симпсоны, 30 сезон 1-2 серия из 21 / The Simpsons (Марк Керклэнд, Джефф Линч, Сьюзи Диттер, Мэтт Гроенинг) [2018, Комедия, мультсериал, семейный, WEBRip 720p] MVO

0 | 0

1.59 ГБ

В этой теме нет новых непрочитанных сообщений. Симпсоны, 30 сезон 1-3 серия из 21 / The Simpsons (Марк Керклэнд, Джефф Линч, Сьюзи Диттер, Мэтт Гроенинг) [2018, Комедия, мультсериал, семейный, WEBRip 720p] MVO

0 | 0

2.39 ГБ

В этой теме нет новых непрочитанных сообщений. Симпсоны, 30 сезон 1 серия из 21 / The Simpsons [IdeaFilm] (Марк Керклэнд, Джефф Линч, Сьюзи Диттер, Мэтт Гроенинг) [2018, Комедия, мультсериал, семейный, WEBRip, P]

5 | 3

292.94 МБ




Вы не можете начинать темы
Вы не можете отвечать на сообщения
Вы не можете редактировать свои сообщения
Вы не можете удалять свои сообщения
Вы не можете добавлять вложения

Перейти:  
 Вход
ppkBB3cker v.2 © 2008-2014 @ PPK
[ Time : 0.045s | 16 Queries | GZIP : Off ]

cron