img image001 image001 image001 image001 image001 image001 image001 image001 image001 image001 image001 image001 image001 image001 image001 image001

Planets Sun Sun Sun
Статистика раздачи
Автор: Снежана | Размер: 6.02 ГБ | Добавлен: 18 окт 2018
Раздают: 0    Качают: 0
Скачать торрент
Скачать торрент
Описание торрента

СообщениеДобавлено: 18 окт 2018 

Механика сердца / Jack et la mécanique du coeur / Jack and the Cuckoo-Clock Heart

Перевод: Профессиональный (многоголосый, закадровый) AlexFilm, субтитры: русские (только песни), французские
Формат: BDRip, MKV, H.264, AC3/DTS
Страна: Франция, Бельгия
Режиссер: Стефан Берла, Матиас Мальзьё
Жанр: мультфильм, мюзикл, фэнтези, драма, мелодрама, приключения
Продолжительность: 01:32:32
Год выпуска: 2013

В ролях: Матиас Мальзьё, Оливия Руис, Гран Кор Маляд, Жан Рошфор, Росси де Пальма, Бабет, Мари Винсент, Эмили Луазо, Артур Аш, Дани

Описание: Джек родился в Эдинбурге, в «самый холодный день на свете», и сердце его мгновенно оледенело. Брошенного матерью мальчика усыновляет акушерка-волшебница, Докторша Мадлен. Она вставляет ему в грудь часы, которые помогают сердцу биться, но влюбляться Джеку нельзя — такого пылкого чувства хрупкая сердечная механика не выдержит. Однако подросший Джек невольно нарушает запрет, увидев на прогулке маленькую уличную певицу…



Видео: 1920x1080p (16:9), 24 fps, AVC MPEG-4 (H.264), ~6655 kbps, 0.134 bit/pixel
Аудио #1: Русский: 48 kHz, AC3 Dolby Digital, 6 ch, ~384 kbps [Профессиональный (многоголосый, закадровый)]
Аудио #2: Русский: 48 kHz, AC3 Dolby Digital, 6 ch, ~384 kbps [Любительский (двухголосый)]
Аудио #3: Английский: 48 kHz, AC3 Dolby Digital, 6 ch, ~384 kbps [Профессиональный (полное дублирование)]
Аудио #4: Французский: 48 kHz, DTS, 6 ch, ~1509 kbps [Оригинал]

Format : Matroska
Format version : Version 2
File size : 6.02 GiB
Duration : 1h 32mn
Overall bit rate : 9 319 Kbps
Encoded date : UTC 2014-08-25 19:17:10
Writing application : mkvmerge v4.0.0 ('The Stars were mine') built on Jun 6 2010 16:18:42
Writing library : libebml v1.0.0 + libmatroska v1.0.0
Video
ID : 1
Format : AVC
Format/Info : Advanced Video Codec
Format profile :
Format settings, CABAC : Yes
Format settings, ReFrames : 4 frames
Codec ID : V_MPEG4/ISO/AVC
Duration : 1h 32mn
Bit rate : 6 655 Kbps
Width : 1 920 pixels
Height : 1 080 pixels
Display aspect ratio : 16:9
Frame rate mode : Constant
Frame rate : 24.000 fps
Color space : YUV
Chroma subsampling : 4:2:0
Bit depth : 8 bits
Scan type : Progressive
Bits/(Pixel*Frame) : 0.134
Stream size : 4.30 GiB (69%)
Title : NTSC, 1920x1080 (1.778:1), BDRip 1080p - tRuAVC & Multfilmy [DFCbit]
Writing library : x264 core 142 r2453kMod ea0ca51
Encoding settings : cabac=1 / ref=4 / deblock=1:-2:-2 / analyse=0x3:0x133 / me=umh / subme=11 / psy=1 / fade_compensate=0.00 / psy_rd=0.63:0.00 / mixed_ref=1 / me_range=32 / chroma_me=1 / trellis=2 / 8x8dct=1 / cqm=0 / deadzone=21,11 / fast_pskip=0 / chroma_qp_offset=-2 / threads=12 / lookahead_threads=3 / sliced_threads=0 / nr=0 / decimate=1 / interlaced=0 / bluray_compat=0 / constrained_intra=0 / fgo=0 / bframes=12 / b_pyramid=2 / b_adapt=2 / b_bias=0 / direct=1 / weightb=1 / open_gop=0 / weightp=2 / keyint=250 / keyint_min=23 / scenecut=40 / intra_refresh=0 / rc_lookahead=70 / rc=crf / mbtree=0 / crf=17.0199 / qcomp=0.81 / qpmin=0 / qpmax=69 / qpstep=4 / vbv_maxrate=50000 / vbv_bufsize=62500 / crf_max=0.0 / nal_hrd=none / filler=0 / ip_ratio=1.40 / pb_ratio=1.30 / aq=3:0.90
Language : French
Default : Yes
Forced : No
Color primaries : BT.709
Transfer characteristics : BT.709
Matrix coefficients : BT.709
Audio #1
ID : 2
Format : AC-3
Format/Info : Audio Coding 3
Mode extension : CM (complete main)
Format settings, Endianness : Big
Codec ID : A_AC3
Duration : 1h 32mn
Bit rate mode : Constant
Bit rate : 384 Kbps
Channel(s) : 6 channels
Channel positions : Front: L C R, Side: L R, LFE
Sampling rate : 48.0 KHz
Bit depth : 16 bits
Compression mode : Lossy
Stream size : 254 MiB (4%)
Title : AC3, 6 ch, 48 kHz, 384 kbps - MVO | AlexFilm
Language : Russian
Default : Yes
Forced : No
Audio #2
ID : 3
Format : AC-3
Format/Info : Audio Coding 3
Mode extension : CM (complete main)
Format settings, Endianness : Big
Codec ID : A_AC3
Duration : 1h 32mn
Bit rate mode : Constant
Bit rate : 384 Kbps
Channel(s) : 6 channels
Channel positions : Front: L C R, Side: L R, LFE
Sampling rate : 48.0 KHz
Bit depth : 16 bits
Compression mode : Lossy
Stream size : 254 MiB (4%)
Title : AC3, 6 ch, 48 kHz, 384 kbps - DVO | М. Кенс и О. Брыкина
Language : Russian
Default : No
Forced : No
Audio #3
ID : 4
Format : AC-3
Format/Info : Audio Coding 3
Mode extension : CM (complete main)
Format settings, Endianness : Big
Codec ID : A_AC3
Duration : 1h 32mn
Bit rate mode : Constant
Bit rate : 384 Kbps
Channel(s) : 6 channels
Channel positions : Front: L C R, Side: L R, LFE
Sampling rate : 48.0 KHz
Bit depth : 16 bits
Compression mode : Lossy
Stream size : 254 MiB (4%)
Title : AC3, 6 ch, 48 kHz, 384 kbps - Dubbing
Language : English
Default : No
Forced : No
Audio #4
ID : 5
Format : DTS
Format/Info : Digital Theater Systems
Mode : 16
Format settings, Endianness : Big
Codec ID : A_DTS
Duration : 1h 32mn
Bit rate mode : Constant
Bit rate : 1 509 Kbps
Channel(s) : 6 channels
Channel positions : Front: L C R, Side: L R, LFE
Sampling rate : 48.0 KHz
Bit depth : 24 bits
Compression mode : Lossy
Stream size : 999 MiB (16%)
Title : DTS / 5.1 / 48 kHz / 1509 kbps / 24-bit - Original
Language : French
Default : No
Forced : No
Text #1
ID : 6
Format : UTF-8
Codec ID : S_TEXT/UTF8
Codec ID/Info : UTF-8 Plain Text
Title : SRT, Песни by AlexFilm
Language : Russian
Default : No
Forced : No
Text #2
ID : 7
Format : UTF-8
Codec ID : S_TEXT/UTF8
Codec ID/Info : UTF-8 Plain Text
Title : SRT, Песни by rtys
Language : Russian
Default : No
Forced : No
Text #3
ID : 8
Format : UTF-8
Codec ID : S_TEXT/UTF8
Codec ID/Info : UTF-8 Plain Text
Title : SRT, Full
Language : French
Default : No
Forced : No












   Похожие торренты   Торрент   Размер 
В этой теме нет новых непрочитанных сообщений. Механика сердца / Jack et la mecanique du coeur (Стефан Берла, Матиас Мальзьё) [2013, мультфильм, мюзикл, фэнтези, драма, мелодрама, приключения, BDRip] MVO+DUB (eng)

2 | 0

1.71 ГБ

В этой теме нет новых непрочитанных сообщений. Механика сердца / Jack et la mecanique du coeur (Стефан Берла, Матиас Мальзьё) [2013, мультфильм, мюзикл, фэнтези, драма, мелодрама, приключения, LowHDRip-AVC] MVO

16 | 3

744.41 МБ

В этой теме нет новых непрочитанных сообщений. Механика сердца / Jack et la mécanique du coeur (2013) BDRip 1080p | L2

83 | 26

7.91 ГБ

В этой теме нет новых непрочитанных сообщений. Механика сердца / Jack et la mécanique du coeur (2013) BDRip-AVC | L2

186 | 71

2.14 ГБ

В этой теме нет новых непрочитанных сообщений. Механика сердца / Jack et la mécanique du coeur (2013) BDRemux 1080p | AlexFilm

5 | 2

27.12 ГБ

В этой теме нет новых непрочитанных сообщений. Механика сердца / Jack et la mécanique du coeur (2013) BDRip 720p | L2

285 | 89

3.52 ГБ

В этой теме нет новых непрочитанных сообщений. Механика сердца / Jack et la mécanique du coeur (2013) BDRip-AVC от ExKinoRay | P, L2

152 | 23

2.13 ГБ




Вы не можете начинать темы
Вы не можете отвечать на сообщения
Вы не можете редактировать свои сообщения
Вы не можете удалять свои сообщения
Вы не можете добавлять вложения

Перейти:  
 Вход
ppkBB3cker v.2 © 2008-2014 @ PPK
[ Time : 0.034s | 18 Queries | GZIP : Off ]

cron