img image001 image001 image001 image001 image001 image001 image001 image001 image001 image001 image001 image001 image001 image001 image001

Planets Sun Sun Sun
Статистика раздачи
Автор: Снежана | Размер: 2.16 ГБ | Добавлен: 29 окт 2018
Раздают: 20    Качают: 0
Скачать торрент
Скачать торрент
Описание торрента

СообщениеДобавлено: 29 окт 2018 

Суперсемейка 2 / Incredibles 2

Перевод: Профессиональный (полное дублирование) iTunes
Субтитры: Русские, английские
Формат: WEB-DLRip-AVC, MKV, H.264, AC3
Страна: США
Режиссер: Брэд Бёрд
Жанр: мультфильм, фантастика, боевик, комедия, приключения, семейный
Продолжительность: 01:57:49
Год выпуска: 2018

В ролях: Крэйг Т. Нельсон Холли Хантер Сара Вауэлл Хак Милнер Кэтрин Кинер Илай Фучиле Боб Оденкёрк Сэмюэл Л. Джексон Майкл Бёрд София Буш

Описание: После событий первой части суперсемейка пользуется повышенным вниманием со стороны журналистов. Неожиданно оказалось, что обаятельная Миссис Исключительная гораздо лучше смотрится на экране телевизора, чем её муж. Мистеру Исключительному все чаще приходится сидеть дома и приглядывать за детьми, у каждого из которых есть свои причины быть недовольным собственными суперспособностями. Однако семейным проблемам предстоит отступить на второй план, когда окажется, что спокойствию Суперсемейки угрожает новый могущественный враг.



Видео: 1024x428 (2.40:1), 23.976 fps, AVC MPEG-4 (H.264), ~1850 kbps, 0.174 bit/pixel
Аудио #1: Русский: 48 kHz, AC3 Dolby Digital, 6 ch, ~384 kbps [Профессиональный (полное дублирование)]
Аудио #2: Английский: 48 kHz, AC3 Dolby Digital, 6 ch, ~384 kbps [Оригинал]

Format : Matroska
Format version : Version 4
File size : 2.16 GiB
Duration : 1 h 57 min
Writing application : mkvmerge v28.0.0 ('Voice In My Head') 64-bit
Writing library : libebml v1.3.6 + libmatroska v1.4.9

Video
ID : 1
Format : AVC
Format/Info : Advanced Video Codec
Format profile : High@L4
Format settings : CABAC / 5 Ref Frames
Format settings, CABAC : Yes
Format settings, ReFrames : 5 frames
Codec ID : V_MPEG4/ISO/AVC
Duration : 1 h 57 min
Bit rate : 1 850 kb/s
Width : 1 024 pixels
Height : 428 pixels
Display aspect ratio : 2.40:1
Frame rate mode : Constant
Frame rate : 23.976 (23976/1000) FPS
Color space : YUV
Chroma subsampling : 4:2:0
Bit depth : 8 bits
Scan type : Progressive
Bits/(Pixel*Frame) : 0.174
Default : Yes
Forced : No
Color range : Limited
Color primaries : BT.709
Transfer characteristics : BT.709
Matrix coefficients : BT.709

Audio #1
ID : 2
Format : AC-3
Format/Info : Audio Coding 3
Commercial name : Dolby Digital
Codec ID : A_AC3
Duration : 1 h 57 min
Bit rate mode : Constant
Bit rate : 384 kb/s
Channel(s) : 6 channels
Channel layout : L R C LFE Ls Rs
Sampling rate : 48.0 kHz
Frame rate : 31.250 FPS (1536 SPF)
Bit depth : 16 bits
Compression mode : Lossy
Title : iTunes
Language : Russian
Service kind : Complete Main
Default : Yes
Forced : Yes

Audio #2
ID : 3
Format : AC-3
Format/Info : Audio Coding 3
Commercial name : Dolby Digital
Codec ID : A_AC3
Duration : 1 h 57 min
Bit rate mode : Constant
Bit rate : 384 kb/s
Channel(s) : 6 channels
Channel layout : L R C LFE Ls Rs
Sampling rate : 48.0 kHz
Frame rate : 31.250 FPS (1536 SPF)
Bit depth : 16 bits
Compression mode : Lossy
Title : Original
Language : English
Service kind : Complete Main
Default : No
Forced : No

Text #1
ID : 4
Format : UTF-8
Codec ID : S_TEXT/UTF8
Codec ID/Info : UTF-8 Plain Text
Duration : 1 h 7 min
Bit rate : 0 b/s
Count of elements : 3
Stream size : 203 Bytes (0%)
Title : Forced
Language : Russian
Default : Yes
Forced : Yes

Text #2
ID : 5
Format : UTF-8
Codec ID : S_TEXT/UTF8
Codec ID/Info : UTF-8 Plain Text
Duration : 1 h 55 min
Bit rate : 118 b/s
Count of elements : 1760
Stream size : 101 KiB (0%)
Title : Full
Language : Russian
Default : No
Forced : No

Text #3
ID : 6
Format : UTF-8
Codec ID : S_TEXT/UTF8
Codec ID/Info : UTF-8 Plain Text
Duration : 1 h 54 min
Bit rate : 130 b/s
Count of elements : 2304
Stream size : 110 KiB (0%)
Title : SDH
Language : Russian
Default : No
Forced : No

Text #4
ID : 7
Format : UTF-8
Codec ID : S_TEXT/UTF8
Codec ID/Info : UTF-8 Plain Text
Duration : 1 h 54 min
Bit rate : 81 b/s
Count of elements : 2326
Stream size : 68.8 KiB (0%)
Title : SDH
Language : English
Default : No
Forced : No

Text #5
ID : 8
Format : UTF-8
Codec ID : S_TEXT/UTF8
Codec ID/Info : UTF-8 Plain Text
Duration : 1 h 54 min
Bit rate : 124 b/s
Count of elements : 2325
Stream size : 105 KiB (0%)
Title : SDH Colored
Language : English
Default : No
Forced : No

Menu
00:00:00.000 : en:Tony Interrogation
00:03:22.000 : en:Incredibles vs Underminer
00:08:52.000 : en:Chewed Out
00:09:36.000 : en:Family Dinner
00:13:38.000 : en:Poolside
00:15:44.000 : en:Deavor Meets Supers
00:21:19.000 : en:Pillow Talk
00:23:27.000 : en:New House
00:27:08.000 : en:Where's Mom?
00:28:59.000 : en:Runaway Train
00:35:11.000 : en:Raccoon Fight
00:39:07.000 : en:Helen Checks In
00:42:44.000 : en:Tony Forgets
00:43:41.000 : en:Air Rescue
00:47:35.000 : en:Breakfast Blowup
00:48:52.000 : en:Triumph Return
00:54:15.000 : en:Vi Embarrassed
00:56:16.000 : en:Tracking Screenslaver
01:00:58.000 : en:Screenslaver Caught
01:02:02.000 : en:Breaking Point
01:06:55.000 : en:E The Babysitter
01:09:18.000 : en:Helen Reviews Footage
01:11:28.000 : en:Bob's Apology
01:12:37.000 : en:Helen Slips Away
01:14:39.000 : en:Auntie E
01:18:00.000 : en:Cold Room
01:20:32.000 : en:House Attack
01:25:01.000 : en:Kids Alone
01:27:59.000 : en:Super Signing
01:31:54.000 : en:Kids To The Rescue
01:33:26.000 : en:Trap Is Sprung
01:36:24.000 : en:Battle Royale
01:37:45.000 : en:Save The Day
01:43:57.000 : en:Resolution
01:45:36.000 : en:Epilogue
01:47:30.000 : en:End Credits










   Похожие торренты   Торрент   Размер 
В этой теме нет новых непрочитанных сообщений. Суперсемейка 2 / Incredibles 2 (Брэд Бёрд) [2018, мультфильм, фантастика, боевик, комедия, приключения, семейный, WEB-DLRip] DUB / Walt Disney

77 | 1

1.46 ГБ

В этой теме нет новых непрочитанных сообщений. Суперсемейка 2 / Incredibles 2 (Брэд Бёрд) [2018, мультфильм, фантастика, боевик, комедия, приключения, семейный, TeleSynch]

107 | 1

1.34 ГБ

В этой теме нет новых непрочитанных сообщений. Суперсемейка 2 / Incredibles 2 (Брэд Бёрд) [2018, мультфильм, фантастика, боевик, комедия, приключения, семейный, WEB-DL 720p] DUB / Мультфильмы (HD/BD Video)

77 | 10

3.92 ГБ

В этой теме нет новых непрочитанных сообщений. Суперсемейка 2 / Incredibles 2 (Брэд Бёрд) [2018, мультфильм, фантастика, боевик, комедия, приключения, семейный, WEB-DL 1080p] DUB / Мультфильмы (HD/BD Video)

193 | 1

4.34 ГБ

В этой теме нет новых непрочитанных сообщений. Суперсемейка 2 / Incredibles 2 (Брэд Бёрд) [2018, мультфильм, фантастика, боевик, комедия, приключения, семейный, BDRip 720p] DUB / Мультфильмы (HD/BD Video)

20 | 2

5.68 ГБ

В этой теме нет новых непрочитанных сообщений. Суперсемейка 2 / Incredibles 2 (Брэд Бёрд) [2018, мультфильм, фантастика, боевик, комедия, приключения, семейный, BDRip 1080p] DUB / Мультфильмы (HD/BD Video)

49 | 5

8.39 ГБ

В этой теме нет новых непрочитанных сообщений. Суперсемейка / The Incredibles (Брэд Бёрд) [2004, мультфильм, фэнтези, боевик, приключения, семейный, WEBRip 1080p] DUB / Мультфильмы (HD/BD Video)

23 | 0

4.15 ГБ




Вы не можете начинать темы
Вы не можете отвечать на сообщения
Вы не можете редактировать свои сообщения
Вы не можете удалять свои сообщения
Вы не можете добавлять вложения

Перейти:  
 Вход
ppkBB3cker v.2 © 2008-2014 @ PPK
[ Time : 0.021s | 15 Queries | GZIP : Off ]

cron