img image001 image001 image001 image001 image001 image001 image001 image001 image001 image001 image001 image001 image001 image001 image001

Planets Sun Sun Sun
Статистика раздачи
Автор: Снежана | Размер: 2.95 ГБ | Добавлен: 15 апр 2019
Раздают: 6    Качают: 0
Скачать торрент
Скачать торрент
Описание торрента

СообщениеДобавлено: 15 апр 2019 

Шервуд / Sherwood

Перевод: Профессиональный (многоголосый, закадровый), [NewStation] cубтитры: английские, русские
Формат: WEBRip, MKV, H.264, AC3
Страна: США
Режиссер: Брюс Картер
Жанр: Фантастика, приключения
Продолжительность: ~ 00:24:00
Год выпуска: 2019

В ролях: Аня Чалотра, Тайлер Пози, Анайрин Барнард, Джейми Чанг, Рэйчел Хаус, Адетокумбо Маккормак, Джозеф Файнс

Описание: Всю свою жизнь юная хакерша Робин из Шервуда думала, что она сирота. Но когда загадочная перчатка открыла секрет, перевернувший её жизнь, Робин примкнула к группе ренегатов. Они покажут ей, как важны настоящая любовь, верность и жертвенность.
На улицах затопленного и потрепанного бурями Лондона 23-го столетия и в возвышающейся цитадели плавающего Верхнего города Робин и её новые друзья борются со стихиями и преодолевают препятствия, чтобы победить безумного шерифа Ноттингема.




Видео: 1280x720 (16:9), 23,976 кадров/сек, AVC H.264, ~1329 Кбит/сек, 0.089 bits/pixel

Аудио: RUS: 48 kHz, AC-3, 2ch, ~256 kbps
Аудио: ENG: 48 kHz, AAC, 6ch, ~384 kbps

Общее
Уникальный идентификатор : 322744117910053534322725313560416990639 (0xF2CE41902604AC2E34DEC68051F5B5AF)
Полное имя : F:\NewStation\Sherwood.S01.720p.WEBRip.NewStation\Sherwood.S01E01.WEBRip.720p.NewStation.mkv
Формат : Matroska
Версия формата : Version 4 / Version 2
Размер файла : 306 Мбайт
Продолжительность : 21 м. 43 с.
Общий поток : 1971 Кбит/сек
Дата кодирования : UTC 2019-04-08 18:45:48
Программа кодирования : mkvmerge v28.1.0 (''Morning Child'') 64-bit
Библиотека кодирования : libebml v1.3.6 + libmatroska v1.4.9 / Lavf58.20.100

Видео
Идентификатор : 1
Формат : AVC
Формат/Информация : Advanced Video Codec
Профиль формата :
Настройки формата : CABAC / 3 Ref Frames
Параметр CABAC формата : Да
Параметр RefFrames формата : 3 кадра
Идентификатор кодека : V_MPEG4/ISO/AVC
Продолжительность : 21 м. 43 с.
Битрейт : 1329 Кбит/сек
Ширина : 1280 пикселей
Высота : 720 пикселей
Соотношение сторон : 16:9
Режим частоты кадров : Постоянный
Частота кадров : 23,976 (24000/1001) кадра/сек
Цветовое пространство : YUV
Субдискретизация насыщенности : 4:2:0
Битовая глубина : 8 бит
Тип развёртки : Прогрессивная
Бит/(Пиксели*Кадры) : 0.060
Размер потока : 206 Мбайт (67%)
Default : Да
Forced : Нет
Цветовой диапазон : Limited
Основные цвета : BT.709
Характеристики трансфера : BT.709
Коэффициенты матрицы : BT.709

Аудио #1
Идентификатор : 2
Формат : AC-3
Формат/Информация : Audio Coding 3
Идентификатор кодека : A_AC3
Продолжительность : 21 м. 43 с.
Вид битрейта : Постоянный
Битрейт : 256 Кбит/сек
Каналы : 2 канала
Расположение каналов : Front: L R
Частота : 48,0 КГц
Частота кадров : 31,250 кадров/сек (1536 SPF)
Битовая глубина : 16 бит
Метод сжатия : С потерями
Размер потока : 39,8 Мбайт (13%)
Заголовок : NewStation
Язык : Russian
ServiceKind/String : Complete Main
Default : Да
Forced : Нет

Аудио #2
Идентификатор : 3
Формат : AAC
Формат/Информация : Advanced Audio Codec
Профиль формата : LC
Идентификатор кодека : A_AAC-2
Продолжительность : 21 м. 43 с.
Битрейт : 384 Кбит/сек
Каналы : 6 каналов
Расположение каналов : Front: L C R, Side: L R, LFE
Частота : 48,0 КГц
Частота кадров : 46,875 кадров/сек (1024 SPF)
Метод сжатия : С потерями
Размер потока : 59,6 Мбайт (19%)
Заголовок : Original
Default : Нет
Forced : Нет

Текст #1
Идентификатор : 4
Формат : UTF-8
Идентификатор кодека : S_TEXT/UTF8
Идентификатор кодека/Информация : UTF-8 Plain Text
Продолжительность : 20 м. 58 с.
Битрейт : 106 бит/сек
ElementCount : 330
Размер потока : 16,4 Кбайт (0%)
Заголовок : Русский
Язык : Russian
Default : Нет
Forced : Нет

Текст #2
Идентификатор : 5
Формат : UTF-8
Идентификатор кодека : S_TEXT/UTF8
Идентификатор кодека/Информация : UTF-8 Plain Text
Продолжительность : 21 м. 37 с.
Битрейт : 70 бит/сек
ElementCount : 396
Размер потока : 11,1 Кбайт (0%)
Заголовок : Английский
Язык : English
Default : Нет
Forced : Нет






   Похожие торренты   Торрент   Размер 
В этой теме нет новых непрочитанных сообщений. Шервуд 1 сезон 1-10 серии из 10 / Sherwood [NewStation] (Брюс Картер) [2019, Фантастика, приключения, WEBRip] MVO

26 | 0

2.06 ГБ

В этой теме нет новых непрочитанных сообщений. Шервуд 1 сезон 1-10 серии из 10 / Sherwood [NewStation] (Брюс Картер) [2019, Фантастика, приключения, WEBRip 1080] MVO

15 | 1

4.68 ГБ

В этой теме нет новых непрочитанных сообщений. Генлок, 1 сезон 1-3 серии из 8 / gen:Lock [NewStation] (Гари Дж. Хэддок) [2019, Мультсериал, фантастика, приключения, боевик, WEBRip 1080p] DVO

2 | 2

2.75 ГБ

В этой теме нет новых непрочитанных сообщений. Даллас и Робо , 1 сезон 1-8 серии из 8 / Dallas & Robo [NewStation] (Энтони Стакки) [2018, Комедия, приключения, фантастика, WEBRip 1080p] DVO

2 | 0

4.22 ГБ

В этой теме нет новых непрочитанных сообщений. Даллас и Робо , 1 сезон 1-6 серии из 8 / Dallas & Robo [NewStation] (Энтони Стакки) [2018, Комедия, приключения, фантастика, WEBRip 1080p] DVO

2 | 0

3.18 ГБ

В этой теме нет новых непрочитанных сообщений. Даллас и Робо , 1 сезон 1-4 серии из 8 / Dallas & Robo [NewStation] (Энтони Стакки) [2018, Комедия, приключения, фантастика, WEBRip 1080p] DVO

2 | 0

2.15 ГБ

В этой теме нет новых непрочитанных сообщений. Даллас и Робо , 1 сезон 1-3 серии из 8 / Dallas & Robo [NewStation] (Энтони Стакки) [2018, Комедия, приключения, фантастика, WEBRip 1080p] DVO

2 | 9

1.64 ГБ




Вы не можете начинать темы
Вы не можете отвечать на сообщения
Вы не можете редактировать свои сообщения
Вы не можете удалять свои сообщения
Вы не можете добавлять вложения

Перейти:  
 Вход
ppkBB3cker v.2 © 2008-2014 @ PPK
[ Time : 0.038s | 15 Queries | GZIP : Off ]

cron