img image001 image001 image001 image001 image001 image001 image001 image001 image001 image001 image001 image001 image001 image001 image001

Planets Sun Sun Sun
Статистика раздачи
Автор: Снежана | Размер: 2.06 ГБ | Добавлен: 15 апр 2019
Раздают: 26    Качают: 0
Скачать торрент
Скачать торрент
Описание торрента

СообщениеДобавлено: 15 апр 2019 

Шервуд / Sherwood

Перевод: Профессиональный (многоголосый, закадровый), [NewStation] cубтитры: нет
Формат: WEBRip, avi, xvid, mp3
Страна: США
Режиссер: Брюс Картер
Жанр: Фантастика, приключения
Продолжительность: ~ 00:24:00
Год выпуска: 2019

В ролях: Аня Чалотра, Тайлер Пози, Анайрин Барнард, Джейми Чанг, Рэйчел Хаус, Адетокумбо Маккормак, Джозеф Файнс

Описание: Всю свою жизнь юная хакерша Робин из Шервуда думала, что она сирота. Но когда загадочная перчатка открыла секрет, перевернувший её жизнь, Робин примкнула к группе ренегатов. Они покажут ей, как важны настоящая любовь, верность и жертвенность.
На улицах затопленного и потрепанного бурями Лондона 23-го столетия и в возвышающейся цитадели плавающего Верхнего города Робин и её новые друзья борются со стихиями и преодолевают препятствия, чтобы победить безумного шерифа Ноттингема.




Видео: 720x400 (16:9), 23,976 кадров/сек, AVC H.264, Simple@L5 ~1097 Кбит/сек, 0.089 bits/pixel

Аудио: RUS: MPEG Layer 3, 2 ch, ~128 kbps avg
Аудио: ENG: MPEG Layer 3, 2 ch, ~128 kbps avg

Общее
Полное имя : F:\NewStation\Sherwood.S01.WEBRip.NewStation\Sherwood.S01E01.WEBRip.NewStation.avi
Формат : AVI
Формат/Информация : Audio Video Interleave
Размер файла : 212 Мбайт
Продолжительность : 21 м. 43 с.
Общий поток : 1367 Кбит/сек
Программа кодирования : VirtualDubMod 1.5.10.2 (build 2540/release)
Библиотека кодирования : VirtualDubMod build 2540/release

Видео
Идентификатор : 0
Формат : MPEG-4 Visual
Профиль формата : Simple@L5
Параметр BVOP формата : Нет
Параметр QPel формата : Нет
Параметр GMC формата : Без точки перехода
Параметр матрицы формата : Default (H.263)
Идентификатор кодека : XVID
Идентификатор кодека/Подсказка : XviD
Продолжительность : 21 м. 43 с.
Битрейт : 1097 Кбит/сек
Ширина : 720 пикселей
Высота : 400 пикселей
Соотношение сторон : 16:9
Частота кадров : 23,976 (24000/1001) кадра/сек
Цветовое пространство : YUV
Субдискретизация насыщенности : 4:2:0
Битовая глубина : 8 бит
Тип развёртки : Прогрессивная
Метод сжатия : С потерями
Бит/(Пиксели*Кадры) : 0.159
Размер потока : 170 Мбайт (80%)
Библиотека кодирования : XviD 67

Аудио #1
Идентификатор : 1
Формат : MPEG Audio
Версия формата : Version 1
Профиль формата : Layer 3
Настройки формата : Joint stereo / MS Stereo
Идентификатор кодека : 55
Идентификатор кодека/Подсказка : MP3
Продолжительность : 21 м. 43 с.
Вид битрейта : Постоянный
Битрейт : 128 Кбит/сек
Каналы : 2 канала
Частота : 48,0 КГц
Метод сжатия : С потерями
Размер потока : 19,9 Мбайт (9%)
Выравнивание : Соединение по промежуткам
Продолжительность промежутка : 42 мс. (1,00 видеокадр)
Время предзагрузки промежутка : 504 мс.

Аудио #2
Идентификатор : 2
Формат : MPEG Audio
Версия формата : Version 1
Профиль формата : Layer 3
Идентификатор кодека : 55
Идентификатор кодека/Подсказка : MP3
Продолжительность : 21 м. 43 с.
Вид битрейта : Постоянный
Битрейт : 128 Кбит/сек
Каналы : 2 канала
Частота : 48,0 КГц
Метод сжатия : С потерями
Размер потока : 19,9 Мбайт (9%)
Выравнивание : Разделение по промежуткам
Продолжительность промежутка : 42 мс. (1,00 видеокадр)
Время предзагрузки промежутка : 500 мс.
Библиотека кодирования : LAMELAME_MAJOR_VERSI





   Похожие торренты   Торрент   Размер 
В этой теме нет новых непрочитанных сообщений. Шервуд 1 сезон 1-10 серии из 10 / Sherwood [NewStation] (Брюс Картер) [2019, Фантастика, приключения, WEBRip 1080] MVO

17 | 0

4.68 ГБ

В этой теме нет новых непрочитанных сообщений. Шервуд 1 сезон 1-10 серии из 10 / Sherwood [NewStation] (Брюс Картер) [2019, Фантастика, приключения, WEBRip 720p] MVO

6 | 0

2.95 ГБ

В этой теме нет новых непрочитанных сообщений. Генлок, 1 сезон 1-3 серии из 8 / gen:Lock [NewStation] (Гари Дж. Хэддок) [2019, Мультсериал, фантастика, приключения, боевик, WEBRip 1080p] DVO

2 | 2

2.75 ГБ

В этой теме нет новых непрочитанных сообщений. Даллас и Робо , 1 сезон 1-3 серии из 8 / Dallas & Robo [NewStation] (Энтони Стакки) [2018, Комедия, приключения, фантастика, WEBRip 1080p] DVO

2 | 9

1.64 ГБ

В этой теме нет новых непрочитанных сообщений. Даллас и Робо , 1 сезон 1-5 серии из 8 / Dallas & Robo [NewStation] (Энтони Стакки) [2018, Комедия, приключения, фантастика, WEBRip 1080p] DVO

1 | 1

2.68 ГБ

В этой теме нет новых непрочитанных сообщений. Даллас и Робо , 1 сезон 1-8 серии из 8 / Dallas & Robo [NewStation] (Энтони Стакки) [2018, Комедия, приключения, фантастика, WEBRip 1080p] DVO

2 | 0

4.22 ГБ

В этой теме нет новых непрочитанных сообщений. Даллас и Робо , 1 сезон 1-4 серии из 8 / Dallas & Robo [NewStation] (Энтони Стакки) [2018, Комедия, приключения, фантастика, WEBRip 1080p] DVO

2 | 0

2.15 ГБ




Вы не можете начинать темы
Вы не можете отвечать на сообщения
Вы не можете редактировать свои сообщения
Вы не можете удалять свои сообщения
Вы не можете добавлять вложения

Перейти:  
 Вход
ppkBB3cker v.2 © 2008-2014 @ PPK
[ Time : 0.027s | 17 Queries | GZIP : Off ]

cron