img image001 image001 image001 image001 image001 image001 image001 image001 image001 image001 image001 image001 image001 image001 image001 image001

Planets Sun Sun Sun
Статистика раздачи
Автор: Снежана | Размер: 6.6 ГБ | Добавлен: 13 май 2019
Раздают: 0    Качают: 0
Скачать торрент
Скачать торрент
Описание торрента

СообщениеДобавлено: 13 май 2019 

Тука и Берти / Tuca & Bertie


Перевод: Профессиональный (многоголосый, закадровый), [NewStation] cубтитры: русские, английские
Формат: WEBRip, MKV, H.264, AC3
Страна: США
Режиссер: Джеймс Боумен, Аарон Лонг
Жанр: Комедия
Всего серий: 10
Продолжительность: 10 x 00:24:00
Год выпуска: 2019

В ролях: Тиффани Хэддиш, Али Вонг, Стивен Юн, Николь Байер, Ричард Э. Грант, Джон Ерли, Коул Эскола, Регги Уоттс, Аквафина
Описание: Комедийный сериал расскажет о двух подругах — 30-летних птицах, живущих в одном многоэтажном доме. Тука — беззаботный тукан, любительница вечеринок и праздников. Берти, в свою очередь, скромная певчая птичка, склонная к тревогам и мечтам.




Видео: 1280x720 (16:9), 23,976 кадров/сек, AVC (H.264) , ~2000 Кбит/сек, 0.081 bit/pixel
Аудио #1 48 kHz, EAC3 Dolby Digital, 3/2 (L,C,R,l,r) + LFE ch, ~640 kbps | Русский (NewStation)
Аудио #2 48 kHz, EAC3 Dolby Digital, 3/2 (L,C,R,l,r) + LFE ch, ~640 kbps | Английский


Внимание! Раздача ведётся путём добавления новых серий; при каждом добавлении создаётся новый торрент. Чтобы начать докачку новой серии, пользователям необходимо сделать следующее:
(1) остановить скачивание,
(2) удалить старый торрент у себя из клиента (старые серии удалять не надо),
(3) скачать новый торрент и запустить его у себя в клиенте вместо старого, при этом указать клиенту путь в старую папку куда и должно происходить скачивание новых серий.

Ваш клиент при этом должен произвести хеширование (проверку) старой папки (если не производит сам - помогите ему сделать это), и будет докачивать только те серии которых у вас ещё нет. Старые серии при этом не удаляются, а продолжают раздаваться!

Eсли вы уже удалили старые серии, то предотвратить повторную закачку старых серий можно, отжав галочку в соответствующих местах при запуске нового торрента. По возможности, желательно не удалять старые серии как можно дольше, чтобы релизёр не столько продолжал раздавать старые серии, а смог сконцентрироваться на новых.


Общее
Уникальный идентификатор : 273362484058313096839865048630614353082 (0xCDA7B30A0B14B0A9924FFD8DF2F0E4BA)
Полное имя : F:\NewStation\Tuca.and.Bertie.S01.WEBRip.720p.NewStation\Tuca.and.Bertie.S01E01.WEBRip.720p.NewStation.mkv
Формат : Matroska
Версия формата : Version 4 / Version 2
Размер файла : 597 Мбайт
Продолжительность : 25 м. 40 с.
Общий поток : 3251 Кбит/сек
Дата кодирования : UTC 2019-05-04 17:40:54
Программа кодирования : mkvmerge v28.1.0 (''Morning Child'') 64-bit
Библиотека кодирования : libebml v1.3.6 + libmatroska v1.4.9

Видео
Идентификатор : 1
Формат : AVC
Формат/Информация : Advanced Video Codec
Профиль формата :
Настройки формата : CABAC / 4 Ref Frames
Параметр CABAC формата : Да
Параметр RefFrames формата : 4 кадра
Идентификатор кодека : V_MPEG4/ISO/AVC
Продолжительность : 25 м. 39 с.
Битрейт : 2000 Кбит/сек
Ширина : 1280 пикселей
Высота : 720 пикселей
Соотношение сторон : 16:9
Режим частоты кадров : Постоянный
Частота кадров : 23,976 (24000/1001) кадра/сек
Цветовое пространство : YUV
Субдискретизация насыщенности : 4:2:0
Битовая глубина : 8 бит
Тип развёртки : Прогрессивная
Бит/(Пиксели*Кадры) : 0.091
Размер потока : 361 Мбайт (60%)
Библиотека кодирования : x264 core 148
Настройки программы : cabac=1 / ref=3 / deblock=1:0:0 / analyse=0x3:0x113 / me=hex / subme=7 / psy=1 / psy_rd=1.00:0.00 / mixed_ref=1 / me_range=16 / chroma_me=1 / trellis=1 / 8x8dct=1 / cqm=0 / deadzone=21,11 / fast_pskip=1 / chroma_qp_offset=-2 / threads=3 / lookahead_threads=1 / sliced_threads=0 / nr=0 / decimate=1 / interlaced=0 / bluray_compat=0 / constrained_intra=0 / bframes=3 / b_pyramid=2 / b_adapt=1 / b_bias=0 / direct=1 / weightb=1 / open_gop=0 / weightp=2 / keyint=250 / keyint_min=23 / scenecut=40 / intra_refresh=0 / rc_lookahead=40 / rc=abr / mbtree=1 / bitrate=2000 / ratetol=1.0 / qcomp=0.60 / qpmin=0 / qpmax=69 / qpstep=4 / ip_ratio=1.40 / aq=1:1.00
Default : Да
Forced : Нет

Аудио #1
Идентификатор : 2
Формат : E-AC-3
Формат/Информация : Enhanced Audio Coding 3
Идентификатор кодека : A_EAC3
Продолжительность : 25 м. 40 с.
Вид битрейта : Постоянный
Битрейт : 640 Кбит/сек
Каналы : 6 каналов
Расположение каналов : Front: L C R, Side: L R, LFE
Частота : 48,0 КГц
Частота кадров : 187,500 кадров/сек (256 SPF)
Метод сжатия : С потерями
Размер потока : 118 Мбайт (20%)
Заголовок : NewStation
Язык : Russian
ServiceKind/String : Complete Main
Default : Да
Forced : Нет

Аудио #2
Идентификатор : 3
Формат : E-AC-3
Формат/Информация : Enhanced Audio Coding 3
Идентификатор кодека : A_EAC3
Продолжительность : 25 м. 40 с.
Вид битрейта : Постоянный
Битрейт : 640 Кбит/сек
Каналы : 6 каналов
Расположение каналов : Front: L C R, Side: L R, LFE
Частота : 48,0 КГц
Частота кадров : 187,500 кадров/сек (256 SPF)
Метод сжатия : С потерями
Размер потока : 118 Мбайт (20%)
Заголовок : English
Язык : English
ServiceKind/String : Complete Main
Default : Нет
Forced : Нет

Текст #1
Идентификатор : 4
Формат : UTF-8
Идентификатор кодека : S_TEXT/UTF8
Идентификатор кодека/Информация : UTF-8 Plain Text
Продолжительность : 24 м. 58 с.
Битрейт : 101 бит/сек
ElementCount : 509
Размер потока : 18,5 Кбайт (0%)
Заголовок : English [SDH]
Язык : English
Default : Нет
Forced : Нет

Текст #2
Идентификатор : 5
Формат : UTF-8
Идентификатор кодека : S_TEXT/UTF8
Идентификатор кодека/Информация : UTF-8 Plain Text
Продолжительность : 24 м. 51 с.
Битрейт : 81 бит/сек
ElementCount : 444
Размер потока : 14,7 Кбайт (0%)
Заголовок : Castilian [Full]
Язык : Spanish
Default : Нет
Forced : Нет

Текст #3
Идентификатор : 6
Формат : UTF-8
Идентификатор кодека : S_TEXT/UTF8
Идентификатор кодека/Информация : UTF-8 Plain Text
Продолжительность : 24 м. 51 с.
Битрейт : 81 бит/сек
ElementCount : 444
Размер потока : 14,9 Кбайт (0%)
Заголовок : Spanish [Full]
Язык : Spanish
Default : Нет
Forced : Нет

Текст #4
Идентификатор : 7
Формат : UTF-8
Идентификатор кодека : S_TEXT/UTF8
Идентификатор кодека/Информация : UTF-8 Plain Text
Продолжительность : 24 м. 51 с.
Битрейт : 83 бит/сек
ElementCount : 445
Размер потока : 15,2 Кбайт (0%)
Заголовок : French [Full]
Язык : French
Default : Нет
Forced : Нет

Текст #5
Идентификатор : 8
Формат : UTF-8
Идентификатор кодека : S_TEXT/UTF8
Идентификатор кодека/Информация : UTF-8 Plain Text
Продолжительность : 24 м. 51 с.
Битрейт : 79 бит/сек
ElementCount : 407
Размер потока : 14,5 Кбайт (0%)
Заголовок : German [Full]
Язык : German
Default : Нет
Forced : Нет

Текст #6
Идентификатор : 9
Формат : UTF-8
Идентификатор кодека : S_TEXT/UTF8
Идентификатор кодека/Информация : UTF-8 Plain Text
Продолжительность : 24 м. 51 с.
Битрейт : 83 бит/сек
ElementCount : 411
Размер потока : 15,2 Кбайт (0%)
Заголовок : Italian [Full]
Язык : Italian
Default : Нет
Forced : Нет

Текст #7
Идентификатор : 10
Формат : UTF-8
Идентификатор кодека : S_TEXT/UTF8
Идентификатор кодека/Информация : UTF-8 Plain Text
Продолжительность : 24 м. 51 с.
Битрейт : 84 бит/сек
ElementCount : 372
Размер потока : 15,4 Кбайт (0%)
Заголовок : Portuguese [Full]
Язык : Portuguese
Default : Нет
Forced : Нет

Текст #8
Идентификатор : 11
Формат : UTF-8
Идентификатор кодека : S_TEXT/UTF8
Идентификатор кодека/Информация : UTF-8 Plain Text
Продолжительность : 24 м. 50 с.
Битрейт : 83 бит/сек
ElementCount : 428
Размер потока : 15,2 Кбайт (0%)
Заголовок : Brazilian Portuguese [Full]
Язык : Portuguese
Default : Нет
Forced : Нет

Текст #9
Идентификатор : 12
Формат : UTF-8
Идентификатор кодека : S_TEXT/UTF8
Идентификатор кодека/Информация : UTF-8 Plain Text
Продолжительность : 24 м. 51 с.
Битрейт : 75 бит/сек
ElementCount : 427
Размер потока : 13,8 Кбайт (0%)
Заголовок : Polish [Full]
Язык : Polish
Default : Нет
Forced : Нет

Текст #10
Идентификатор : 13
Формат : UTF-8
Идентификатор кодека : S_TEXT/UTF8
Идентификатор кодека/Информация : UTF-8 Plain Text
Продолжительность : 24 м. 51 с.
Битрейт : 84 бит/сек
ElementCount : 403
Размер потока : 15,4 Кбайт (0%)
Заголовок : Turkish [Full]
Язык : Turkish
Default : Нет
Forced : Нет

Текст #11
Идентификатор : 14
Формат : UTF-8
Идентификатор кодека : S_TEXT/UTF8
Идентификатор кодека/Информация : UTF-8 Plain Text
Продолжительность : 24 м. 51 с.
Битрейт : 78 бит/сек
ElementCount : 353
Размер потока : 14,3 Кбайт (0%)
Заголовок : Swedish [Full]
Язык : Swedish
Default : Нет
Forced : Нет

Текст #12
Идентификатор : 15
Формат : UTF-8
Идентификатор кодека : S_TEXT/UTF8
Идентификатор кодека/Информация : UTF-8 Plain Text
Продолжительность : 24 м. 51 с.
Битрейт : 73 бит/сек
ElementCount : 362
Размер потока : 13,4 Кбайт (0%)
Заголовок : Danish [Full]
Язык : Danish
Default : Нет
Forced : Нет

Текст #13
Идентификатор : 16
Формат : UTF-8
Идентификатор кодека : S_TEXT/UTF8
Идентификатор кодека/Информация : UTF-8 Plain Text
Продолжительность : 24 м. 51 с.
Битрейт : 77 бит/сек
ElementCount : 381
Размер потока : 14,0 Кбайт (0%)
Заголовок : Finnish [Full]
Язык : Finnish
Default : Нет
Forced : Нет

Текст #14
Идентификатор : 17
Формат : UTF-8
Идентификатор кодека : S_TEXT/UTF8
Идентификатор кодека/Информация : UTF-8 Plain Text
Продолжительность : 24 м. 51 с.
Битрейт : 64 бит/сек
ElementCount : 317
Размер потока : 11,8 Кбайт (0%)
Заголовок : Dutch [Full]
Язык : Dutch
Default : Нет
Forced : Нет

Текст #15
Идентификатор : 18
Формат : UTF-8
Идентификатор кодека : S_TEXT/UTF8
Идентификатор кодека/Информация : UTF-8 Plain Text
Продолжительность : 24 м. 51 с.
Битрейт : 77 бит/сек
ElementCount : 405
Размер потока : 14,0 Кбайт (0%)
Заголовок : Norwegian [Full]
Язык : Norwegian
Default : Нет
Forced : Нет

Текст #16
Идентификатор : 19
Формат : UTF-8
Идентификатор кодека : S_TEXT/UTF8
Идентификатор кодека/Информация : UTF-8 Plain Text
Продолжительность : 24 м. 51 с.
Битрейт : 116 бит/сек
ElementCount : 449
Размер потока : 21,2 Кбайт (0%)
Заголовок : Russian [Full]
Язык : Russian
Default : Нет
Forced : Нет

Текст #17
Идентификатор : 20
Формат : UTF-8
Идентификатор кодека : S_TEXT/UTF8
Идентификатор кодека/Информация : UTF-8 Plain Text
Продолжительность : 24 м. 51 с.
Битрейт : 83 бит/сек
ElementCount : 449
Размер потока : 15,1 Кбайт (0%)
Заголовок : Hungarian [Full]
Язык : Hungarian
Default : Нет
Forced : Нет

Текст #18
Идентификатор : 21
Формат : UTF-8
Идентификатор кодека : S_TEXT/UTF8
Идентификатор кодека/Информация : UTF-8 Plain Text
Продолжительность : 24 м. 51 с.
Битрейт : 147 бит/сек
ElementCount : 436
Размер потока : 26,8 Кбайт (0%)
Заголовок : Greek [Full]
Язык : Greek
Default : Нет
Forced : Нет

Текст #19
Идентификатор : 22
Формат : UTF-8
Идентификатор кодека : S_TEXT/UTF8
Идентификатор кодека/Информация : UTF-8 Plain Text
Продолжительность : 24 м. 37 с.
Битрейт : 140 бит/сек
ElementCount : 437
Размер потока : 25,4 Кбайт (0%)
Заголовок : Hebrew [Full]
Язык : Hebrew
Default : Нет
Forced : Нет

Текст #20
Идентификатор : 23
Формат : UTF-8
Идентификатор кодека : S_TEXT/UTF8
Идентификатор кодека/Информация : UTF-8 Plain Text
Продолжительность : 24 м. 51 с.
Битрейт : 149 бит/сек
ElementCount : 455
Размер потока : 27,2 Кбайт (0%)
Заголовок : Arabic [Full]
Язык : Arabic
Default : Нет
Forced : Нет

Текст #21
Идентификатор : 24
Формат : UTF-8
Идентификатор кодека : S_TEXT/UTF8
Идентификатор кодека/Информация : UTF-8 Plain Text
Продолжительность : 24 м. 51 с.
Битрейт : 87 бит/сек
ElementCount : 417
Размер потока : 15,9 Кбайт (0%)
Заголовок : Romanian [Full]
Язык : Romanian
Default : Нет
Forced : Нет

Текст #22
Идентификатор : 25
Формат : UTF-8
Идентификатор кодека : S_TEXT/UTF8
Идентификатор кодека/Информация : UTF-8 Plain Text
Продолжительность : 24 м. 51 с.
Битрейт : 76 бит/сек
ElementCount : 451
Размер потока : 13,9 Кбайт (0%)
Заголовок : Czech [Full]
Язык : Czech
Default : Нет
Forced : Нет

Текст #23
Идентификатор : 26
Формат : UTF-8
Идентификатор кодека : S_TEXT/UTF8
Идентификатор кодека/Информация : UTF-8 Plain Text
Продолжительность : 24 м. 51 с.
Битрейт : 79 бит/сек
ElementCount : 447
Размер потока : 14,5 Кбайт (0%)
Заголовок : Indonesian [Full]
Язык : Indonesian
Default : Нет
Forced : Нет

Текст #24
Идентификатор : 27
Формат : UTF-8
Идентификатор кодека : S_TEXT/UTF8
Идентификатор кодека/Информация : UTF-8 Plain Text
Продолжительность : 24 м. 51 с.
Битрейт : 116 бит/сек
ElementCount : 446
Размер потока : 21,2 Кбайт (0%)
Заголовок : Vietnamese [Full]
Язык : Vietnamese
Default : Нет
Forced : Нет

Текст #25
Идентификатор : 28
Формат : UTF-8
Идентификатор кодека : S_TEXT/UTF8
Идентификатор кодека/Информация : UTF-8 Plain Text
Продолжительность : 24 м. 51 с.
Битрейт : 200 бит/сек
ElementCount : 454
Размер потока : 36,5 Кбайт (0%)
Заголовок : Thai [Full]
Язык : Thai
Default : Нет
Forced : Нет

Текст #26
Идентификатор : 29
Формат : UTF-8
Идентификатор кодека : S_TEXT/UTF8
Идентификатор кодека/Информация : UTF-8 Plain Text
Продолжительность : 24 м. 51 с.
Битрейт : 111 бит/сек
ElementCount : 457
Размер потока : 20,2 Кбайт (0%)
Заголовок : Korean [Full]
Язык : Korean
Default : Нет
Forced : Нет

Текст #27
Идентификатор : 30
Формат : UTF-8
Идентификатор кодека : S_TEXT/UTF8
Идентификатор кодека/Информация : UTF-8 Plain Text
Продолжительность : 24 м. 51 с.
Битрейт : 85 бит/сек
ElementCount : 454
Размер потока : 15,5 Кбайт (0%)
Заголовок : Chinese (Simplified) [Full]
Язык : Chinese
Default : Нет
Forced : Нет

Текст #28
Идентификатор : 31
Формат : UTF-8
Идентификатор кодека : S_TEXT/UTF8
Идентификатор кодека/Информация : UTF-8 Plain Text
Продолжительность : 24 м. 48 с.
Битрейт : 90 бит/сек
ElementCount : 454
Размер потока : 16,4 Кбайт (0%)
Заголовок : Chinese (Traditional) [Full]
Язык : Chinese
Default : Нет
Forced : Нет

Текст #29
Идентификатор : 32
Формат : UTF-8
Идентификатор кодека : S_TEXT/UTF8
Идентификатор кодека/Информация : UTF-8 Plain Text
Продолжительность : 24 м. 51 с.
Битрейт : 78 бит/сек
ElementCount : 466
Размер потока : 14,2 Кбайт (0%)
Заголовок : Japanese [Full]
Язык : Japanese
Default : Нет
Forced : Нет




   Похожие торренты   Торрент   Размер 
В этой теме нет новых непрочитанных сообщений. Тука и Берти 1 сезон 1-3 серии из 10 / Tuca & Bertie (Джеймс Боумен, Аарон Лонг) [2019, Комедия, WEBRip 720p] MVO + Original + Eng, Rus sub

0 | 0

3.93 ГБ

В этой теме нет новых непрочитанных сообщений. Тука и Берти 1 сезон 1-10 серии из 10 / Tuca & Bertie (Джеймс Боумен, Аарон Лонг) [2019, Комедия, WEBRip] MVO + Original

6 | 0

2.44 ГБ

В этой теме нет новых непрочитанных сообщений. Тука и Берти 1 сезон 1-3 серии из 10 / Tuca & Bertie (Джеймс Боумен, Аарон Лонг) [2019, Комедия, WEBRip] MVO + Original

0 | 0

1.45 ГБ

В этой теме нет новых непрочитанных сообщений. Тука и Берти 1 сезон 1-3 серии из 10 / Tuca & Bertie (Джеймс Боумен, Аарон Лонг) [2019, Комедия, WEBRip 1080p] MVO + Original + Eng, Rus sub

2 | 0

6.09 ГБ

В этой теме нет новых непрочитанных сообщений. Тука и Берти 1 сезон 1-10 серии из 10 / Tuca & Bertie (Джеймс Боумен, Аарон Лонг) [2019, Комедия, WEBRip 1080p] MVO

4 | 0

10.32 ГБ

В этой теме нет новых непрочитанных сообщений. Тигтон, 1 сезон 1-2 серии из 11 / Tigtone (Фредди Кристи) [2019, ужасы, фэнтези, комедия, приключения, WEB-DL 720p] DVO + Original + Sub

0 | 0

868.58 МБ

В этой теме нет новых непрочитанных сообщений. Тигтон, 1 сезон 1-3 серии из 11 / Tigtone [NewStation] (Фредди Кристи) [2019, ужасы, фэнтези, комедия, приключения, WEB-DL 720p] DVO + Original + Sub

0 | 0

1.27 ГБ




Вы не можете начинать темы
Вы не можете отвечать на сообщения
Вы не можете редактировать свои сообщения
Вы не можете удалять свои сообщения
Вы не можете добавлять вложения

Перейти:  
 Вход
ppkBB3cker v.2 © 2008-2014 @ PPK
[ Time : 0.019s | 16 Queries | GZIP : Off ]

cron