img image001 image001 image001 image001 image001 image001 image001 image001 image001 image001 image001 image001 image001 image001 image001

Planets Sun Sun Sun
Статистика раздачи
Автор: Снежана | Размер: 2.44 ГБ | Добавлен: 13 май 2019
Раздают: 6    Качают: 0
Скачать торрент
Скачать торрент
Описание торрента

СообщениеДобавлено: 13 май 2019 

Тука и Берти / Tuca & Bertie


Перевод: Профессиональный (многоголосый, закадровый), [NewStation] cубтитры: нет
Формат: WEBRip, avi, xvid, mp3
Страна: США
Режиссер: Джеймс Боумен, Аарон Лонг
Жанр: Комедия
Всего серий: 10
Продолжительность: 10 x 00:24:00
Год выпуска: 2019

В ролях: Тиффани Хэддиш, Али Вонг, Стивен Юн, Николь Байер, Ричард Э. Грант, Джон Ерли, Коул Эскола, Регги Уоттс, Аквафина
Описание: Комедийный сериал расскажет о двух подругах — 30-летних птицах, живущих в одном многоэтажном доме. Тука — беззаботный тукан, любительница вечеринок и праздников. Берти, в свою очередь, скромная певчая птичка, склонная к тревогам и мечтам.





Видео: 700x400 (16:9), 23,976 кадров/сек, XviD,~1063 kbps, 0.154 bit/pixe
Аудио #1 48 kHz, MPEG Layer 3, 2 ch, ~128 kbps avg | Русский (NewStation)
Аудио #2 48 kHz, MPEG Layer 3, 2 ch, ~128 kbps avg | Английский


Внимание! Раздача ведётся путём добавления новых серий; при каждом добавлении создаётся новый торрент. Чтобы начать докачку новой серии, пользователям необходимо сделать следующее:
(1) остановить скачивание,
(2) удалить старый торрент у себя из клиента (старые серии удалять не надо),
(3) скачать новый торрент и запустить его у себя в клиенте вместо старого, при этом указать клиенту путь в старую папку куда и должно происходить скачивание новых серий.

Ваш клиент при этом должен произвести хеширование (проверку) старой папки (если не производит сам - помогите ему сделать это), и будет докачивать только те серии которых у вас ещё нет. Старые серии при этом не удаляются, а продолжают раздаваться!

Eсли вы уже удалили старые серии, то предотвратить повторную закачку старых серий можно, отжав галочку в соответствующих местах при запуске нового торрента. По возможности, желательно не удалять старые серии как можно дольше, чтобы релизёр не столько продолжал раздавать старые серии, а смог сконцентрироваться на новых.


Общее
Полное имя : F:\NewStation\Tuca.and.Bertie.S01.WEBRip.NewStation\Tuca.and.Bertie.S01E01.WEBRip.NewStation.avi
Формат : AVI
Формат/Информация : Audio Video Interleave
Размер файла : 247 Мбайт
Продолжительность : 25 м. 39 с.
Общий поток : 1344 Кбит/сек
Программа кодирования : VirtualDubMod 1.5.10.2 (build 2540/release)
Библиотека кодирования : VirtualDubMod build 2540/release

Видео
Идентификатор : 0
Формат : MPEG-4 Visual
Профиль формата : Simple@L5
Параметр BVOP формата : Нет
Параметр QPel формата : Нет
Параметр GMC формата : Без точки перехода
Параметр матрицы формата : Default (H.263)
Идентификатор кодека : XVID
Идентификатор кодека/Подсказка : XviD
Продолжительность : 25 м. 39 с.
Битрейт : 1074 Кбит/сек
Ширина : 720 пикселей
Высота : 400 пикселей
Соотношение сторон : 16:9
Частота кадров : 23,976 (24000/1001) кадра/сек
Цветовое пространство : YUV
Субдискретизация насыщенности : 4:2:0
Битовая глубина : 8 бит
Тип развёртки : Прогрессивная
Метод сжатия : С потерями
Бит/(Пиксели*Кадры) : 0.155
Размер потока : 197 Мбайт (80%)
Библиотека кодирования : XviD 67

Аудио #1
Идентификатор : 1
Формат : MPEG Audio
Версия формата : Version 1
Профиль формата : Layer 3
Настройки формата : Joint stereo / MS Stereo
Идентификатор кодека : 55
Идентификатор кодека/Подсказка : MP3
Продолжительность : 25 м. 39 с.
Вид битрейта : Постоянный
Битрейт : 128 Кбит/сек
Каналы : 2 канала
Частота : 48,0 КГц
Метод сжатия : С потерями
Размер потока : 23,5 Мбайт (10%)
Выравнивание : Соединение по промежуткам
Продолжительность промежутка : 42 мс. (1,00 видеокадр)
Время предзагрузки промежутка : 504 мс.

Аудио #2
Идентификатор : 2
Формат : MPEG Audio
Версия формата : Version 1
Профиль формата : Layer 3
Идентификатор кодека : 55
Идентификатор кодека/Подсказка : MP3
Продолжительность : 25 м. 39 с.
Вид битрейта : Постоянный
Битрейт : 128 Кбит/сек
Каналы : 2 канала
Частота : 48,0 КГц
Метод сжатия : С потерями
Размер потока : 23,5 Мбайт (10%)
Выравнивание : Разделение по промежуткам
Продолжительность промежутка : 42 мс. (1,00 видеокадр)
Время предзагрузки промежутка : 500 мс.
Библиотека кодирования : LAMELAME_MAJOR_VERSI




   Похожие торренты   Торрент   Размер 
В этой теме нет новых непрочитанных сообщений. Тука и Берти 1 сезон 1-3 серии из 10 / Tuca & Bertie (Джеймс Боумен, Аарон Лонг) [2019, Комедия, WEBRip] MVO + Original

0 | 0

1.45 ГБ

В этой теме нет новых непрочитанных сообщений. Тука и Берти 1 сезон 1-3 серии из 10 / Tuca & Bertie (Джеймс Боумен, Аарон Лонг) [2019, Комедия, WEBRip 720p] MVO + Original + Eng, Rus sub

0 | 0

3.93 ГБ

В этой теме нет новых непрочитанных сообщений. Тука и Берти 1 сезон 1-3 серии из 10 / Tuca & Bertie (Джеймс Боумен, Аарон Лонг) [2019, Комедия, WEBRip 1080p] MVO + Original + Eng, Rus sub

2 | 0

6.09 ГБ

В этой теме нет новых непрочитанных сообщений. Тука и Берти 1 сезон 1-10 серии из 10 / Tuca & Bertie (Джеймс Боумен, Аарон Лонг) [2019, Комедия, WEBRip 720p] MVO + Original + Eng, Rus sub

0 | 1

6.6 ГБ

В этой теме нет новых непрочитанных сообщений. Тука и Берти 1 сезон 1-10 серии из 10 / Tuca & Bertie (Джеймс Боумен, Аарон Лонг) [2019, Комедия, WEBRip 1080p] MVO

4 | 0

10.32 ГБ

В этой теме нет новых непрочитанных сообщений. Тигтон, 1 сезон 1-2 серии из 11 / Tigtone (Фредди Кристи) [2019, ужасы, фэнтези, комедия, приключения, WEB-DL] DVO + Original

4 | 0

222.67 МБ

В этой теме нет новых непрочитанных сообщений. Тигтон, 1 сезон 1-3 серии из 11 / Tigtone [NewStation] (Фредди Кристи) [2019, ужасы, фэнтези, комедия, приключения, WEB-DL] DVO + Original

4 | 2

333.02 МБ




Вы не можете начинать темы
Вы не можете отвечать на сообщения
Вы не можете редактировать свои сообщения
Вы не можете удалять свои сообщения
Вы не можете добавлять вложения

Перейти:  
 Вход
ppkBB3cker v.2 © 2008-2014 @ PPK
[ Time : 0.021s | 16 Queries | GZIP : Off ]

cron