img image001 image001 image001 image001 image001 image001 image001 image001 image001 image001 image001 image001 image001 image001 image001

Planets Sun Sun Sun
Статистика раздачи
Автор: Снежана | Размер: 435.4 МБ | Добавлен: 10 июл 2019
Раздают: 4    Качают: 2
Скачать торрент
Скачать торрент
Описание торрента

СообщениеДобавлено: 10 июл 2019 

Типа человек / Human Kind Of


Перевод: Профессиональный (двухголосый, закадровый), [NewStation] cубтитры: русские
Формат: WEBRip, MKV, H.264, AC3
Страна: США
Режиссер: Диана МакКори
Жанр: Фантастика, комедия
Всего серий: 4
Продолжительность: 4 x 00:05:00
Год выпуска: 2018

В ролях: Мишель Трахтенберг, Кейт Берлант, Зак Орт, Джилл Тэлли, Джефф Хиллер, Ксавьер Родни, Билли Боб Томпсон

Описание: Как-то утром, в свой 16-й День рождения, Джуди узнает, что её отец не с нашей планеты, в следствии чего, у девочки полно удивительных, но пугающе не удобных суперспособностей, с которыми ей теперь нужно научиться жить. А помогут в этом её мамка – бывшая - хиппи, и подруженька феминистка.





Видео: 1920x1080 (16:9), 23,976 кадров/сек, AVC (H.264) , ~2600 Кбит/сек, 0.081 bit/pixel
Аудио #1 48 kHz, AC3 Dolby Digital, 2/0 (L,R) ch, 256 kbps | Русский (NewStation)
Аудио #2 48 kHz, AC3 Dolby Digital, 2/0 (L,R) ch, 256 kbps | Английский



Внимание! Раздача ведётся путём добавления новых серий; при каждом добавлении создаётся новый торрент. Чтобы начать докачку новой серии, пользователям необходимо сделать следующее:
(1) остановить скачивание,
(2) удалить старый торрент у себя из клиента (старые серии удалять не надо),
(3) скачать новый торрент и запустить его у себя в клиенте вместо старого, при этом указать клиенту путь в старую папку куда и должно происходить скачивание новых серий.

Ваш клиент при этом должен произвести хеширование (проверку) старой папки (если не производит сам - помогите ему сделать это), и будет докачивать только те серии которых у вас ещё нет. Старые серии при этом не удаляются, а продолжают раздаваться!

Eсли вы уже удалили старые серии, то предотвратить повторную закачку старых серий можно, отжав галочку в соответствующих местах при запуске нового торрента. По возможности, желательно не удалять старые серии как можно дольше, чтобы релизёр не столько продолжал раздавать старые серии, а смог сконцентрироваться на новых.


Общее
Уникальный идентификатор : 239085565595837897777011714068831585241 (0xB3DE347B38284578AF79EA3A29B8C3D9)
Полное имя : F:\NewStation\Human.Kind.Of.S01.WEBRip.1080p.NewStation\Human.Kind.Of.S01E02.WEBRip.1080p.NewStation.mkv
Формат : Matroska
Версия формата : Version 4 / Version 2
Размер файла : 101 Мбайт
Продолжительность : 4 м. 24 с.
Общий поток : 3211 Кбит/сек
Дата кодирования : UTC 2019-07-06 05:40:10
Программа кодирования : mkvmerge v28.1.0 (''Morning Child'') 64-bit
Библиотека кодирования : libebml v1.3.6 + libmatroska v1.4.9

Видео
Идентификатор : 1
Формат : AVC
Формат/Информация : Advanced Video Codec
Профиль формата : High@L4
Настройки формата : CABAC / 4 Ref Frames
Параметр CABAC формата : Да
Параметр RefFrames формата : 4 кадра
Идентификатор кодека : V_MPEG4/ISO/AVC
Продолжительность : 4 м. 24 с.
Битрейт : 2600 Кбит/сек
Ширина : 1920 пикселей
Высота : 1080 пикселей
Соотношение сторон : 16:9
Режим частоты кадров : Постоянный
Частота кадров : 23,976 (24000/1001) кадра/сек
Цветовое пространство : YUV
Субдискретизация насыщенности : 4:2:0
Битовая глубина : 8 бит
Тип развёртки : Прогрессивная
Бит/(Пиксели*Кадры) : 0.052
Размер потока : 85,1 Мбайт (84%)
Библиотека кодирования : x264 core 148
Настройки программы : cabac=1 / ref=3 / deblock=1:0:0 / analyse=0x3:0x113 / me=hex / subme=7 / psy=1 / psy_rd=1.00:0.00 / mixed_ref=1 / me_range=16 / chroma_me=1 / trellis=1 / 8x8dct=1 / cqm=0 / deadzone=21,11 / fast_pskip=1 / chroma_qp_offset=-2 / threads=3 / lookahead_threads=1 / sliced_threads=0 / nr=0 / decimate=1 / interlaced=0 / bluray_compat=0 / constrained_intra=0 / bframes=3 / b_pyramid=2 / b_adapt=1 / b_bias=0 / direct=1 / weightb=1 / open_gop=0 / weightp=2 / keyint=250 / keyint_min=23 / scenecut=40 / intra_refresh=0 / rc_lookahead=40 / rc=abr / mbtree=1 / bitrate=2600 / ratetol=1.0 / qcomp=0.60 / qpmin=0 / qpmax=69 / qpstep=4 / ip_ratio=1.40 / aq=1:1.00
Язык : English
Default : Да
Forced : Нет

Аудио #1
Идентификатор : 2
Формат : AC-3
Формат/Информация : Audio Coding 3
Идентификатор кодека : A_AC3
Продолжительность : 4 м. 24 с.
Вид битрейта : Постоянный
Битрейт : 256 Кбит/сек
Каналы : 2 канала
Расположение каналов : Front: L R
Частота : 48,0 КГц
Частота кадров : 31,250 кадров/сек (1536 SPF)
Битовая глубина : 16 бит
Метод сжатия : С потерями
Размер потока : 8,08 Мбайт (8%)
Заголовок : NewStation
Язык : Russian
ServiceKind/String : Complete Main
Default : Да
Forced : Нет

Аудио #2
Идентификатор : 3
Формат : AC-3
Формат/Информация : Audio Coding 3
Идентификатор кодека : A_AC3
Продолжительность : 4 м. 24 с.
Вид битрейта : Постоянный
Битрейт : 256 Кбит/сек
Каналы : 2 канала
Расположение каналов : Front: L R
Частота : 48,0 КГц
Частота кадров : 31,250 кадров/сек (1536 SPF)
Битовая глубина : 16 бит
Метод сжатия : С потерями
Размер потока : 8,08 Мбайт (8%)
Заголовок : Original
Язык : English
ServiceKind/String : Complete Main
Default : Нет
Forced : Нет

Текст
Идентификатор : 4
Формат : ASS
Идентификатор кодека : S_TEXT/ASS
Идентификатор кодека/Информация : Advanced Sub Station Alpha
Продолжительность : 4 м. 12 с.
Битрейт : 247 бит/сек
ElementCount : 111
Метод сжатия : Без потерь
Размер потока : 7,60 Кбайт (0%)
Заголовок : NewStation
Язык : Russian
Default : Нет
Forced : Нет


   Похожие торренты   Торрент   Размер 
В этой теме нет новых непрочитанных сообщений. Типа человек 1 сезон 1-21 серии из 21 / Human Kind Of (Диана МакКори) [2018, Фантастика, комедия WEBRip 1080p] DVO

5 | 2

3.49 ГБ

В этой теме нет новых непрочитанных сообщений. Типа человек 1 сезон 1-6 серии из 21 / Human Kind Of (Диана МакКори) [2018, Фантастика, комедия WEBRip 1080p] DVO

0 | 0

662.59 МБ

В этой теме нет новых непрочитанных сообщений. Типа человек 1 сезон 1-14 серии из 21 / Human Kind Of (Диана МакКори) [2018, Фантастика, комедия WEBRip 1080p] DVO

2 | 1

2.25 ГБ

В этой теме нет новых непрочитанных сообщений. Типа человек 1 сезон 1-9 серии из 21 / Human Kind Of (Диана МакКори) [2018, Фантастика, комедия WEBRip 1080p] DVO

0 | 0

1.38 ГБ

В этой теме нет новых непрочитанных сообщений. Даллас и Робо , 1 сезон 1-3 серии из 8 / Dallas & Robo [NewStation] (Энтони Стакки) [2018, Комедия, приключения, фантастика, WEBRip 1080p] DVO

2 | 9

1.64 ГБ

В этой теме нет новых непрочитанных сообщений. Даллас и Робо , 1 сезон 1-6 серии из 8 / Dallas & Robo [NewStation] (Энтони Стакки) [2018, Комедия, приключения, фантастика, WEBRip 1080p] DVO

2 | 0

3.18 ГБ

В этой теме нет новых непрочитанных сообщений. Даллас и Робо , 1 сезон 1-4 серии из 8 / Dallas & Robo [NewStation] (Энтони Стакки) [2018, Комедия, приключения, фантастика, WEBRip 1080p] DVO

2 | 0

2.15 ГБ




Вы не можете начинать темы
Вы не можете отвечать на сообщения
Вы не можете редактировать свои сообщения
Вы не можете удалять свои сообщения
Вы не можете добавлять вложения

Перейти:  
 Вход
ppkBB3cker v.2 © 2008-2014 @ PPK
[ Time : 0.022s | 16 Queries | GZIP : Off ]

cron