img image001 image001 image001 image001 image001 image001 image001 image001 image001 image001 image001 image001 image001 image001 image001

Planets Sun Sun Sun
Статистика раздачи
Автор: Снежана | Размер: 6.12 ГБ | Добавлен: 11 сен 2019
Раздают: 1    Качают: 0
Скачать торрент
Скачать торрент
Описание торрента

СообщениеДобавлено: 11 сен 2019 

Лагерь Лагерь / Camp Camp


Перевод: Любительский двухголосый закадровый NewStation
Субтитры: нет
Формат: WEBRip 1080p, MKV, H.264, AC3
Страна: США
Режиссер: Джордан Свиерз, Майлз Луна, Керри Шоукросс
Жанр: Комедия, приключения
Продолжительность: 15 x ~00:12:00
Год выпуска: 2019
В ролях: Майлз Луна, Майкл Джонс, Элизабет Максвелл

Описание: Трое детей: Макс, Нил и Никки, проводят летние каникулы в долбанутом лагере под названием «Лагерь-Кэмпбелла», которым заведуют двое вожатых : бесконечно веселый и радостный оптимист Дэвид и недовольная пессимистка Гвэн.



Видео: 1920x1080 (16:9), 24 fps, AVC (х264) , 4800 kbps, 0.096 bit/pixel
Аудио #1 Rus: 48 kHz, AC3 Dolby Digital, 2/0 (L,R) ch, 256 kbps
Аудио #2 Eng: 44 kHz, AAC, 2/0 (L,R) ch, 126 kbps

Реклама: Отсутствует

Доп. информация: В сериале присутствует ненормативная лексика.








Внимание! Раздача ведётся путём добавления новых серий; при каждом добавлении создаётся новый торрент. Чтобы начать докачку новой серии, пользователям необходимо сделать следующее:
(1) остановить скачивание,
(2) удалить старый торрент у себя из клиента (старые серии удалять не надо),
(3) скачать новый торрент и запустить его у себя в клиенте вместо старого, при этом указать клиенту путь в старую папку куда и должно происходить скачивание новых серий.

Ваш клиент при этом должен произвести хеширование (проверку) старой папки (если не производит сам - помогите ему сделать это), и будет докачивать только те серии которых у вас ещё нет. Старые серии при этом не удаляются, а продолжают раздаваться!

Eсли вы уже удалили старые серии, то предотвратить повторную закачку старых серий можно, отжав галочку в соответствующих местах при запуске нового торрента. По возможности, желательно не удалять старые серии как можно дольше, чтобы релизёр не столько продолжал раздавать старые серии, а смог сконцентрироваться на новых.




Общее
Уникальный идентификатор : 289474867351460705894327957848680548415 (0xD9C6D4DE5C97B2D8CE8DA9A3C9BFC83F)
Полное имя : F:\NewStation\Camp.Camp.s04.WEBRip.1080p.NewStation\Camp.Camp.s04e01.WEBRip.1080p.NewStation.mkv
Формат : Matroska
Версия формата : Version 4 / Version 2
Размер файла : 436 Мбайт
Продолжительность : 12 м. 18 с.
Общий поток : 4957 Кбит/сек
Дата кодирования : UTC 2019-06-04 10:23:19
Программа кодирования : mkvmerge v28.1.0 (''Morning Child'') 64-bit
Библиотека кодирования : libebml v1.3.6 + libmatroska v1.4.9

Видео
Идентификатор : 1
Формат : AVC
Формат/Информация : Advanced Video Codec
Профиль формата :
Настройки формата : CABAC / 4 Ref Frames
Параметр CABAC формата : Да
Параметр RefFrames формата : 4 кадра
Идентификатор кодека : V_MPEG4/ISO/AVC
Продолжительность : 12 м. 18 с.
Битрейт : 4800 Кбит/сек
Ширина : 1920 пикселей
Высота : 1080 пикселей
Соотношение сторон : 16:9
Режим частоты кадров : Постоянный
Частота кадров : 24,000 кадра/сек
Цветовое пространство : YUV
Субдискретизация насыщенности : 4:2:0
Битовая глубина : 8 бит
Тип развёртки : Прогрессивная
Бит/(Пиксели*Кадры) : 0.096
Размер потока : 403 Мбайт (92%)
Библиотека кодирования : x264 core 148
Настройки программы : cabac=1 / ref=3 / deblock=1:0:0 / analyse=0x1:0x111 / me=hex / subme=7 / psy=1 / psy_rd=1.00:0.00 / mixed_ref=1 / me_range=16 / chroma_me=1 / trellis=1 / 8x8dct=0 / cqm=0 / deadzone=21,11 / fast_pskip=1 / chroma_qp_offset=-2 / threads=34 / lookahead_threads=5 / sliced_threads=0 / nr=0 / decimate=1 / interlaced=0 / bluray_compat=0 / constrained_intra=0 / bframes=3 / b_pyramid=2 / b_adapt=1 / b_bias=0 / direct=1 / weightb=1 / open_gop=0 / weightp=2 / keyint=96 / keyint_min=9 / scenecut=0 / intra_refresh=0 / rc_lookahead=40 / rc=abr / mbtree=1 / bitrate=4800 / ratetol=1.0 / qcomp=0.60 / qpmin=0 / qpmax=69 / qpstep=4 / ip_ratio=1.40 / aq=1:1.00
Default : Да
Forced : Нет
Цветовой диапазон : Limited
Основные цвета : BT.709
Характеристики трансфера : BT.709
Коэффициенты матрицы : BT.709

Аудио #1
Идентификатор : 2
Формат : AC-3
Формат/Информация : Audio Coding 3
Идентификатор кодека : A_AC3
Продолжительность : 12 м. 18 с.
Вид битрейта : Постоянный
Битрейт : 256 Кбит/сек
Каналы : 2 канала
Расположение каналов : Front: L R
Частота : 48,0 КГц
Частота кадров : 31,250 кадров/сек (1536 SPF)
Битовая глубина : 16 бит
Метод сжатия : С потерями
Задержка видео : -46 мс.
Размер потока : 22,5 Мбайт (5%)
Заголовок : NewStation
Язык : Russian
ServiceKind/String : Complete Main
Default : Да
Forced : Нет

Аудио #2
Идентификатор : 3
Формат : AAC
Формат/Информация : Advanced Audio Codec
Профиль формата : LC
Идентификатор кодека : A_AAC-2
Продолжительность : 12 м. 18 с.
Битрейт : 126 Кбит/сек
Каналы : 2 канала
Расположение каналов : Front: L R
Частота : 44,1 КГц
Частота кадров : 43,066 кадра/сек (1024 SPF)
Метод сжатия : С потерями
Задержка видео : -46 мс.
Размер потока : 11,1 Мбайт (3%)
Заголовок : Original
Default : Нет
Forced : Нет

   Похожие торренты   Торрент   Размер 
В этой теме нет новых непрочитанных сообщений. Лагерь Лагерь, 4 сезон 1-2 серии из 18 / Camp Camp (Джордан Свиерз, Майлз Луна, Керри Шоукросс) [2019, комедия, приключения, WEBRip 1080p] DVO

1 | 0

893.66 МБ

В этой теме нет новых непрочитанных сообщений. Лагерь Лагерь, 4 сезон 1-10 серии из 18 / Camp Camp (Джордан Свиерз, Майлз Луна, Керри Шоукросс) [2019, комедия, приключения, WEBRip 1080p] DVO

2 | 1

4.2 ГБ

В этой теме нет новых непрочитанных сообщений. Лагерь Лагерь, 4 сезон 1-9 серии из 18 / Camp Camp (Джордан Свиерз, Майлз Луна, Керри Шоукросс) [2019, комедия, приключения, WEBRip 1080p] DVO

0 | 0

3.8 ГБ

В этой теме нет новых непрочитанных сообщений. Лагерь Лагерь, 4 сезон 1-13 серии из 18 / Camp Camp (Джордан Свиерз, Майлз Луна, Керри Шоукросс) [2019, комедия, приключения, WEBRip 1080p] DVO

2 | 1

5.51 ГБ

В этой теме нет новых непрочитанных сообщений. Лагерь Лагерь, 4 сезон 1-8 серии из 18 / Camp Camp (Джордан Свиерз, Майлз Луна, Керри Шоукросс) [2019, комедия, приключения, WEBRip 1080p] DVO

2 | 5

3.41 ГБ

В этой теме нет новых непрочитанных сообщений. Лагерь Лагерь, 4 сезон 1-7 серии из 18 / Camp Camp (Джордан Свиерз, Майлз Луна, Керри Шоукросс) [2019, комедия, приключения, WEBRip 1080p] DVO

1 | 1

2.98 ГБ

В этой теме нет новых непрочитанных сообщений. Лагерь Лагерь, 4 сезон 1-4 серии из 18 / Camp Camp (Джордан Свиерз, Майлз Луна, Керри Шоукросс) [2019, комедия, приключения, WEBRip 1080p] DVO

2 | 0

1.67 ГБ




Вы не можете начинать темы
Вы не можете отвечать на сообщения
Вы не можете редактировать свои сообщения
Вы не можете удалять свои сообщения
Вы не можете добавлять вложения

Перейти:  
 Вход
ppkBB3cker v.2 © 2008-2014 @ PPK
[ Time : 0.023s | 16 Queries | GZIP : Off ]

cron