img image001 image001 image001 image001 image001 image001 image001 image001 image001 image001 image001 image001 image001 image001 image001

Planets Sun Sun Sun
Статистика раздачи
Автор: Снежана | Размер: 11 ГБ | Добавлен: 13 фев 2020
Раздают: 3    Качают: 2
Скачать торрент
Скачать торрент
Описание торрента

СообщениеДобавлено: 13 фев 2020 

Харли Квинн / Harley Quinn

Перевод: Профессиональный (многоголосый, закадровый), [NewStation] cубтитры: русские, английские
Формат: WEBDL, MKV, H.264, AC3
Страна: США
Режиссер: Сесилия Аранович
Жанр: мультсериал для взрослых, фантастика, фэнтези, боевик, комедия, криминал, детектив
Продолжительность: 11 x ~00:22:00
Год выпуска: 2019
В ролях: Кейли Куоко, Лэйк Белл, Алан Тьюдик, Дидрих Бадер, Джим Рэш, Рон Фанчес, Кристофер Мелони, Тони Хейл, Дж.Б. Смув, Джейсон Александер
Описание: Харли Квинн разорвала отношения с Джокером и теперь пытается самостоятельно стать королевой преступного мира Готэма.



Видео: 1920x1080 (16:9), 23,976 кадров/сек, AVC (H.264) Baseline@L4, ~4984 Кбит/сек, 0.081 bit/pixel
Аудио: 48 kHz, EAC3 Dolby Digital, 3/2 (L,C,R,l,r) + LFE ch, ~640 kbps | Русский (NewStation)
Аудио: 48 kHz, EAC3 Dolby Digital, 3/2 (L,C,R,l,r) + LFE ch, ~640 kbps | Английский

Доп. информация: В сериале присутствует ненормативная лексика.

Реклама: Отсутствует


Внимание! Раздача ведётся путём добавления новых серий; при каждом добавлении создаётся новый торрент. Чтобы начать докачку новой серии, пользователям необходимо сделать следующее:
(1) остановить скачивание,
(2) удалить старый торрент у себя из клиента (старые серии удалять не надо),
(3) скачать новый торрент и запустить его у себя в клиенте вместо старого, при этом указать клиенту путь в старую папку куда и должно происходить скачивание новых серий.

Ваш клиент при этом должен произвести хеширование (проверку) старой папки (если не производит сам - помогите ему сделать это), и будет докачивать только те серии которых у вас ещё нет. Старые серии при этом не удаляются, а продолжают раздаваться!

Eсли вы уже удалили старые серии, то предотвратить повторную закачку старых серий можно, отжав галочку в соответствующих местах при запуске нового торрента. По возможности, желательно не удалять старые серии как можно дольше, чтобы релизёр не столько продолжал раздавать старые серии, а смог сконцентрироваться на новых.


Общее
Уникальный идентификатор : 248705619652883287153684021030363339501 (0xBB1AF5C40BFC50CAEDB1A9E858D81AED)
Полное имя : F:\NewStation\Harley.Quinn.S01.WEB-DL.1080p.NewStation\Harley.Quinn.S01E01.WEB-DL.1080p.NewStation.mkv
Формат : Matroska
Версия формата : Version 4 / Version 2
Размер файла : 1,00 Гбайт
Продолжительность : 22 м. 55 с.
Общий поток : 6267 Кбит/сек
Дата кодирования : UTC 2019-12-01 17:59:12
Программа кодирования : mkvmerge v28.1.0 (''Morning Child'') 64-bit
Библиотека кодирования : libebml v1.3.6 + libmatroska v1.4.9

Видео
Идентификатор : 5
Формат : AVC
Формат/Информация : Advanced Video Codec
Профиль формата : Baseline@L4
Настройки формата : 3 Ref Frames
Параметр CABAC формата : Нет
Параметр RefFrames формата : 3 кадра
Параметр GOP формата : M=1, N=48
Идентификатор кодека : V_MPEG4/ISO/AVC
Продолжительность : 22 м. 55 с.
Битрейт : 4984 Кбит/сек
Ширина : 1920 пикселей
Высота : 1080 пикселей
Соотношение сторон : 16:9
Режим частоты кадров : Постоянный
Частота кадров : 23,976 (24000/1001) кадра/сек
Цветовое пространство : YUV
Субдискретизация насыщенности : 4:2:0
Битовая глубина : 8 бит
Тип развёртки : Прогрессивная
Бит/(Пиксели*Кадры) : 0.100
Размер потока : 817 Мбайт (80%)
Библиотека кодирования : Zencoder Video Encoding System
Язык : English
Default : Да
Forced : Нет
Цветовой диапазон : Limited
Основные цвета : BT.709
Характеристики трансфера : BT.709
Коэффициенты матрицы : BT.709

Аудио #1
Идентификатор : 1
Формат : AC-3
Формат/Информация : Audio Coding 3
Идентификатор кодека : A_AC3
Продолжительность : 22 м. 55 с.
Вид битрейта : Постоянный
Битрейт : 640 Кбит/сек
Каналы : 6 каналов
Расположение каналов : Front: L C R, Side: L R, LFE
Частота : 48,0 КГц
Частота кадров : 31,250 кадров/сек (1536 SPF)
Битовая глубина : 16 бит
Метод сжатия : С потерями
Размер потока : 105 Мбайт (10%)
Заголовок : NewStation
Язык : Russian
ServiceKind/String : Complete Main
Default : Да
Forced : Нет

Аудио #2
Идентификатор : 2
Формат : AC-3
Формат/Информация : Audio Coding 3
Идентификатор кодека : A_AC3
Продолжительность : 22 м. 55 с.
Вид битрейта : Постоянный
Битрейт : 640 Кбит/сек
Каналы : 6 каналов
Расположение каналов : Front: L C R, Side: L R, LFE
Частота : 48,0 КГц
Частота кадров : 31,250 кадров/сек (1536 SPF)
Битовая глубина : 16 бит
Метод сжатия : С потерями
Размер потока : 105 Мбайт (10%)
Заголовок : Original
Язык : English
ServiceKind/String : Complete Main
Default : Нет
Forced : Нет

Текст #1
Идентификатор : 3
Формат : UTF-8
Идентификатор кодека : S_TEXT/UTF8
Идентификатор кодека/Информация : UTF-8 Plain Text
Продолжительность : 22 м. 2 с.
Битрейт : 186 бит/сек
ElementCount : 459
Размер потока : 30,2 Кбайт (0%)
Заголовок : UGN SUBZ
Язык : Russian
Default : Нет
Forced : Нет

Текст #2
Идентификатор : 4
Формат : UTF-8
Идентификатор кодека : S_TEXT/UTF8
Идентификатор кодека/Информация : UTF-8 Plain Text
Продолжительность : 22 м. 1 с.
Битрейт : 113 бит/сек
ElementCount : 535
Размер потока : 18,2 Кбайт (0%)
Заголовок : en
Язык : English
Default : Нет
Forced : Нет






   Похожие торренты   Торрент   Размер 
В этой теме нет новых непрочитанных сообщений. Харли Квинн, 1 сезон 1-5 серии из 13 / Harley Quinn (Сесилия Аранович) [2019, мультсериал для взрослых, фантастика, фэнтези, боевик, комедия, криминал, детектив, WEB-DL 1080p] DVO +Original + Sub (Rus, Eng)

1 | 0

4.98 ГБ

В этой теме нет новых непрочитанных сообщений. Харли Квинн, 1 сезон 1-6 серии из 13 / Harley Quinn (Сесилия Аранович) [2019, мультсериал для взрослых, фантастика, фэнтези, боевик, комедия, криминал, детектив, WEB-DL 1080p] DVO +Original + Sub (Rus, Eng)

0 | 2

5.98 ГБ

В этой теме нет новых непрочитанных сообщений. Харли Квинн, 1 сезон 1-9 серии из 13 / Harley Quinn (Сесилия Аранович) [2019, мультсериал для взрослых, фантастика, фэнтези, боевик, комедия, криминал, детектив, WEB-DL 1080p] DVO +Original + Sub (Rus, Eng)

1 | 0

8.99 ГБ

В этой теме нет новых непрочитанных сообщений. Харли Квинн, 1 сезон 1-7 серии из 13 / Harley Quinn (Сесилия Аранович) [2019, мультсериал для взрослых, фантастика, фэнтези, боевик, комедия, криминал, детектив, WEB-DL 1080p] DVO +Original + Sub (Rus, Eng)

6 | 1

6.99 ГБ

В этой теме нет новых непрочитанных сообщений. Харли Квинн, 1 сезон 1-8 серии из 13 / Harley Quinn (Сесилия Аранович) [2019, мультсериал для взрослых, фантастика, фэнтези, боевик, комедия, криминал, детектив, WEB-DL 1080p] DVO +Original + Sub (Rus, Eng)

2 | 0

7.99 ГБ

В этой теме нет новых непрочитанных сообщений. Харли Квинн, 1 сезон 1-10 серии из 13 / Harley Quinn (Сесилия Аранович) [2019, мультсериал для взрослых, фантастика, фэнтези, боевик, комедия, криминал, детектив, WEB-DL 1080p] DVO +Original + Sub (Rus, Eng)

0 | 0

9.99 ГБ

В этой теме нет новых непрочитанных сообщений. Харли Квинн, 1 сезон 1-3 серии из 13 / Harley Quinn (Сесилия Аранович) [2019, мультсериал для взрослых, фантастика, фэнтези, боевик, комедия, криминал, детектив, WEB-DL 1080p] DVO +Original + Sub (Rus, Eng)

0 | 0

3.01 ГБ




Вы не можете начинать темы
Вы не можете отвечать на сообщения
Вы не можете редактировать свои сообщения
Вы не можете удалять свои сообщения
Вы не можете добавлять вложения

Перейти:  
 Вход
ppkBB3cker v.2 © 2008-2014 @ PPK
[ Time : 0.028s | 16 Queries | GZIP : Off ]

cron