img image001 image001 image001 image001 image001 image001 image001 image001 image001 image001 image001 image001 image001 image001 image001

Planets Sun Sun Sun
Статистика раздачи
Автор: Снежана | Размер: 2.4 ГБ | Добавлен: 13 фев 2020
Раздают: 4    Качают: 2
Скачать торрент
Скачать торрент
Описание торрента

СообщениеДобавлено: 13 фев 2020 

Харли Квинн / Harley Quinn

Перевод: Профессиональный (многоголосый, закадровый), [NewStation] cубтитры: нет
Формат: WEB-DLRip, avi, XviD, mp3
Страна: США
Режиссер: Сесилия Аранович
Жанр: мультсериал для взрослых, фантастика, фэнтези, боевик, комедия, криминал, детектив
Продолжительность: 11 x ~00:22:00
Год выпуска: 2019
В ролях: Кейли Куоко, Лэйк Белл, Алан Тьюдик, Дидрих Бадер, Джим Рэш, Рон Фанчес, Кристофер Мелони, Тони Хейл, Дж.Б. Смув, Джейсон Александер
Описание: Харли Квинн разорвала отношения с Джокером и теперь пытается самостоятельно стать королевой преступного мира Готэма.



Видео: 720х400 (16:9), 23,976 кадров/сек, ~1098 Кбит/сек
Аудио: 48 kHz, MPEG Layer 3, 2 ch, ~128 kbps avg | Русский (NewStation)
Аудио: 48 kHz, MPEG Layer 3, 2 ch, ~128 kbps avg | Английский

Доп. информация: В сериале присутствует ненормативная лексика.

Реклама: Отсутствует


Внимание! Раздача ведётся путём добавления новых серий; при каждом добавлении создаётся новый торрент. Чтобы начать докачку новой серии, пользователям необходимо сделать следующее:
(1) остановить скачивание,
(2) удалить старый торрент у себя из клиента (старые серии удалять не надо),
(3) скачать новый торрент и запустить его у себя в клиенте вместо старого, при этом указать клиенту путь в старую папку куда и должно происходить скачивание новых серий.

Ваш клиент при этом должен произвести хеширование (проверку) старой папки (если не производит сам - помогите ему сделать это), и будет докачивать только те серии которых у вас ещё нет. Старые серии при этом не удаляются, а продолжают раздаваться!

Eсли вы уже удалили старые серии, то предотвратить повторную закачку старых серий можно, отжав галочку в соответствующих местах при запуске нового торрента. По возможности, желательно не удалять старые серии как можно дольше, чтобы релизёр не столько продолжал раздавать старые серии, а смог сконцентрироваться на новых.


Общее
Полное имя : F:\NewStation\Harley.Quinn.S01.WEB-DLRip.NewStation\Harley.Quinn.S01E01.WEB-DLRip.NewStation.avi
Формат : AVI
Формат/Информация : Audio Video Interleave
Размер файла : 224 Мбайт
Продолжительность : 22 м. 55 с.
Общий поток : 1368 Кбит/сек
Программа кодирования : VirtualDubMod 1.5.10.2 (build 2540/release)
Библиотека кодирования : VirtualDubMod build 2540/release

Видео
Идентификатор : 0
Формат : MPEG-4 Visual
Профиль формата : Simple@L5
Параметр BVOP формата : Нет
Параметр QPel формата : Нет
Параметр GMC формата : Без точки перехода
Параметр матрицы формата : Default (H.263)
Идентификатор кодека : XVID
Идентификатор кодека/Подсказка : XviD
Продолжительность : 22 м. 55 с.
Битрейт : 1098 Кбит/сек
Ширина : 720 пикселей
Высота : 400 пикселей
Соотношение сторон : 16:9
Частота кадров : 23,976 (24000/1001) кадра/сек
Цветовое пространство : YUV
Субдискретизация насыщенности : 4:2:0
Битовая глубина : 8 бит
Тип развёртки : Прогрессивная
Метод сжатия : С потерями
Бит/(Пиксели*Кадры) : 0.159
Размер потока : 180 Мбайт (80%)
Библиотека кодирования : XviD 67

Аудио #1
Идентификатор : 1
Формат : MPEG Audio
Версия формата : Version 1
Профиль формата : Layer 3
Настройки формата : Joint stereo / MS Stereo
Идентификатор кодека : 55
Идентификатор кодека/Подсказка : MP3
Продолжительность : 22 м. 55 с.
Вид битрейта : Постоянный
Битрейт : 128 Кбит/сек
Каналы : 2 канала
Частота : 48,0 КГц
Метод сжатия : С потерями
Размер потока : 21,0 Мбайт (9%)
Выравнивание : Соединение по промежуткам
Продолжительность промежутка : 42 мс. (1,00 видеокадр)
Время предзагрузки промежутка : 504 мс.

Аудио #2
Идентификатор : 2
Формат : MPEG Audio
Версия формата : Version 1
Профиль формата : Layer 3
Идентификатор кодека : 55
Идентификатор кодека/Подсказка : MP3
Продолжительность : 22 м. 55 с.
Вид битрейта : Постоянный
Битрейт : 128 Кбит/сек
Каналы : 2 канала
Частота : 48,0 КГц
Метод сжатия : С потерями
Размер потока : 21,0 Мбайт (9%)
Выравнивание : Разделение по промежуткам
Продолжительность промежутка : 42 мс. (1,00 видеокадр)
Время предзагрузки промежутка : 500 мс.










   Похожие торренты   Торрент   Размер 
В этой теме нет новых непрочитанных сообщений. Харли Квинн, 1 сезон 1-6 серии из 13 / Harley Quinn (Сесилия Аранович) [2019, мультсериал для взрослых, фантастика, фэнтези, боевик, комедия, криминал, детектив, WEB-DLRip] DVO +Original

0 | 0

1.31 ГБ

В этой теме нет новых непрочитанных сообщений. Харли Квинн, 1 сезон 1-5 серии из 13 / Harley Quinn (Сесилия Аранович) [2019, мультсериал для взрослых, фантастика, фэнтези, боевик, комедия, криминал, детектив, WEB-DLRip] DVO +Original

0 | 0

1.09 ГБ

В этой теме нет новых непрочитанных сообщений. Харли Квинн, 1 сезон 1-4 серии из 13 / Harley Quinn (Сесилия Аранович) [2019, мультсериал для взрослых, фантастика, фэнтези, боевик, комедия, криминал, детектив, WEB-DLRip] DVO +Original

2 | 0

888.79 МБ

В этой теме нет новых непрочитанных сообщений. Харли Квинн, 1 сезон 1-8 серии из 13 / Harley Quinn (Сесилия Аранович) [2019, мультсериал для взрослых, фантастика, фэнтези, боевик, комедия, криминал, детектив, WEB-DLRip] DVO +Original

2 | 0

1.74 ГБ

В этой теме нет новых непрочитанных сообщений. Харли Квинн, 1 сезон 1-3 серии из 13 / Harley Quinn (Сесилия Аранович) [2019, мультсериал для взрослых, фантастика, фэнтези, боевик, комедия, криминал, детектив, WEB-DLRip] DVO +Original

0 | 0

672.83 МБ

В этой теме нет новых непрочитанных сообщений. Харли Квинн, 1 сезон 1-9 серии из 13 / Harley Quinn (Сесилия Аранович) [2019, мультсериал для взрослых, фантастика, фэнтези, боевик, комедия, криминал, детектив, WEB-DLRip] DVO +Original

1 | 0

1.96 ГБ

В этой теме нет новых непрочитанных сообщений. Харли Квинн, 1 сезон 1-10 серии из 13 / Harley Quinn (Сесилия Аранович) [2019, мультсериал для взрослых, фантастика, фэнтези, боевик, комедия, криминал, детектив, WEB-DLRip] DVO +Original

1 | 0

2.18 ГБ




Вы не можете начинать темы
Вы не можете отвечать на сообщения
Вы не можете редактировать свои сообщения
Вы не можете удалять свои сообщения
Вы не можете добавлять вложения

Перейти:  
 Вход
ppkBB3cker v.2 © 2008-2014 @ PPK
[ Time : 0.026s | 16 Queries | GZIP : Off ]

cron