img image001 image001 image001 image001 image001 image001 image001 image001 image001 image001 image001 image001 image001 image001 image001

Planets Sun Sun Sun
Статистика раздачи
Автор: PriZraK | Размер: 2.63 ГБ | Добавлен: 23 мар 2022
Раздают: 0    Качают: 0
Скачать торрент
Скачать торрент
Описание торрента

СообщениеДобавлено: 23 мар 2022 

Информация о фильме
Название: Огненный будда
Оригинальное название: The Burning Buddha Man / Moeru butsuzou ningen
Год выхода: 2013
Жанр: Мультфильм, ужасы, фэнтези, триллер, для взрослых 18+
Режиссер: Удзитя

В ролях: Нао Ханаи, Тисако Хара, Моэка Харухи, Сюнсукэ Хираи, Мицуко Хоси, Мунэмёо Ходзан, Юка Игути, Рэидзиро Като, Рюки Китаока, Томоми Нидзии

О фильме: В Киото из храмов стали пропадать статуи Будды. Однажды, девочка по имени Бенико обнаруживает своих родителей убитыми в их храме, а статуя Будды, которую они охраняли - пропала. Убитая горем, она переезжает к старому знакомому родителе - Эндзю. Но в храме Эндзю творятся странные дела.



Выпущено: Япония
Продолжительность: 01:19:35
Перевод: Авторский (одноголосый закадровый) [BadBajo]

Файл
Качество: BDRip 720p
Формат: MKV
Видео: MPEG-4 AVC/H.264, 3700 Кбит/сек, 1280x720
Аудио #1: Русский: AC3, 2 ch, 384 Кбит/сек
Аудио #2: Японский: E-AC3, 6 ch, 640 Кбит/сек
Субтитры: английские, украинские [вшитые отключаемые]
Дополнительно: Сохранены оригинальные главы (чаптеры)

Код:
 Общее
Уникальный идентификатор                 : 148944777881034836991950167482893497341 (0x700DB884EA310B39E44CB730A79A73FD)
Полное имя                               : F:ФИЛЬМЫ3. МУЛЬТФИЛЬМЫОгненный будда  The Burning Buddha Man (Moeru butsuzou ningen) (2013)Ognennyy budda  The Burning Buddha Man (Moeru butsuzou ningen) (2013) BDRip 720p.mkv
Формат                                   : Matroska
Версия формата                           : Version 4
Размер файла                             : 2,63 Гбайт
Продолжительность                        : 1 ч. 19 м.
Общий поток                              : 4 728 Кбит/сек
Дата кодирования                         : UTC 2021-06-03 07:46:09
Программа кодирования                    : mkvmerge v56.1.0 ('My Friend') 64-bit
Библиотека кодирования                   : libebml v1.4.2 + libmatroska v1.6.4
Авторское право                          : CVAT TV
Обложка                                  : Yes
Attachments                              : cover.jpg / small_cover.jpg
Язык                                     : und

Видео
Идентификатор                            : 1
Формат                                   : AVC
Формат/Информация                        : Advanced Video Codec
Профиль формата                          : High@L4.1
Настройки формата                        : 8 Ref Frames
Параметр CABAC формата                   : Нет
Параметр RefFrames формата               : 8 кадров
Параметр GOP формата                     : M=13, N=24
Идентификатор кодека                     : V_MPEG4/ISO/AVC
Продолжительность                        : 1 ч. 19 м.
Битрейт                                  : 3 700 Кбит/сек
Ширина                                   : 1 280 пикселей
Высота                                   : 720 пикселей
Соотношение сторон                       : 16:9
Режим частоты кадров                     : Постоянный
Частота кадров                           : 24,000 кадра/сек
Цветовое пространство                    : YUV
Субдискретизация насыщенности            : 4:2:0
Битовая глубина                          : 8 бит
Тип развёртки                            : Прогрессивная
Бит/(Пиксели*Кадры)                      : 0.167
Размер потока                            : 2,06 Гбайт (78%)
Заголовок                                : Japan
Библиотека кодирования                   : x264 core 159 r2991 1771b55
Настройки программы                      : cabac=0 / ref=9 / deblock=1:-3:-3 / analyse=0x3:0x133 / me=umh / subme=11 / psy=1 / psy_rd=1.05:0.10 / mixed_ref=1 / me_range=32 / chroma_me=1 / trellis=2 / 8x8dct=1 / cqm=0 / deadzone=21,11 / fast_pskip=0 / chroma_qp_offset=-3 / threads=19 / lookahead_threads=1 / sliced_threads=0 / nr=0 / decimate=0 / interlaced=0 / bluray_compat=0 / constrained_intra=0 / bframes=12 / b_pyramid=1 / b_adapt=1 / b_bias=11 / direct=3 / weightb=1 / open_gop=0 / weightp=1 / keyint=24 / keyint_min=3 / scenecut=40 / intra_refresh=0 / rc=2pass / mbtree=0 / bitrate=3700 / ratetol=1.0 / qcomp=0.70 / qpmin=3 / qpmax=69 / qpstep=4 / cplxblur=20.0 / qblur=0.5 / ip_ratio=1.40 / pb_ratio=1.30 / aq=2:1.00
Язык                                     : Japanese
Default                                  : Да
Forced                                   : Нет
Цветовой диапазон                        : Limited
Основные цвета                           : BT.709
Характеристики трансфера                 : BT.709
Коэффициенты матрицы                     : BT.709

Аудио #1
Идентификатор                            : 2
Формат                                   : AC-3
Формат/Информация                        : Audio Coding 3
Коммерческое название                    : Dolby Digital
Идентификатор кодека                     : A_AC3
Продолжительность                        : 1 ч. 19 м.
Вид битрейта                             : Постоянный
Битрейт                                  : 384 Кбит/сек
Каналы                                   : 2 канала
Channel layout                           : L R
Частота                                  : 48,0 КГц
Частота кадров                           : 31,250 кадров/сек (1536 SPF)
Битовая глубина                          : 32 бит
Метод сжатия                             : С потерями
Размер потока                            : 219 Мбайт (8%)
Заголовок                                : AVO (BadBajo)
Язык                                     : Russian
Service kind                             : Complete Main
Default                                  : Да
Forced                                   : Да

Аудио #2
Идентификатор                            : 3
Формат                                   : E-AC-3
Формат/Информация                        : Enhanced AC-3
Коммерческое название                    : Dolby Digital Plus
Идентификатор кодека                     : A_EAC3
Продолжительность                        : 1 ч. 19 м.
Вид битрейта                             : Постоянный
Битрейт                                  : 640 Кбит/сек
Каналы                                   : 2 канала
Channel layout                           : L R
Частота                                  : 48,0 КГц
Частота кадров                           : 31,250 кадров/сек (1536 SPF)
Битовая глубина                          : 32 бит
Метод сжатия                             : С потерями
Размер потока                            : 364 Мбайт (14%)
Язык                                     : Japanese
Service kind                             : Complete Main
Default                                  : Нет
Forced                                   : Нет

Текст #1
Идентификатор                            : 4
Формат                                   : UTF-8
Идентификатор кодека                     : S_TEXT/UTF8
Идентификатор кодека/Информация          : UTF-8 Plain Text
Продолжительность                        : 1 ч. 14 м.
Битрейт                                  : 33 бит/сек
Count of elements                        : 624
Размер потока                            : 18,1 Кбайт (0%)
Язык                                     : English
Default                                  : Да
Forced                                   : Нет

Текст #2
Идентификатор                            : 5
Формат                                   : UTF-8
Идентификатор кодека                     : S_TEXT/UTF8
Идентификатор кодека/Информация          : UTF-8 Plain Text
Продолжительность                        : 1 ч. 14 м.
Битрейт                                  : 57 бит/сек
Count of elements                        : 624
Размер потока                            : 31,4 Кбайт (0%)
Язык                                     : Ukrainian
Default                                  : Нет
Forced                                   : Нет

Меню
00:00:00.000                             : :Chapter 01
00:02:13.133                             : :Chapter 02
00:05:51.351                             : :Chapter 03
00:11:28.388                             : :Chapter 04
00:14:48.888                             : :Chapter 05
00:20:23.589                             : :Chapter 06
00:24:45.217                             : :Chapter 07
00:30:20.485                             : :Chapter 08
00:35:07.138                             : :Chapter 09
00:42:57.408                             : :Chapter 10
00:49:27.865                             : :Chapter 11
00:55:21.752                             : :Chapter 12
01:01:06.396                             : :Chapter 13
01:09:55.191                             : :Chapter 14
01:13:40.416                             : :Chapter 15
01:15:41.103                             : :Chapter 16
 

18+
ТРЕЙЛЕР
СЭМПЛ

   Похожие торренты   Торрент   Размер 
В этой теме нет новых непрочитанных сообщений. Горящий человек / Burning Man (2011) BDRip-AVC от ExKinoRay | L, L1

0 | 3

2.22 ГБ

В этой теме нет новых непрочитанных сообщений. Отчаянные фрики / Freaks Out (2021) BDRip 720p | BadBajo

17 | 0

4.11 ГБ

В этой теме нет новых непрочитанных сообщений. Сладостный край / Sweet Country (2017) BDRip 720p | BadBajo

20 | 7

7.07 ГБ

В этой теме нет новых непрочитанных сообщений. Реинкарнация: Пришествие дьявола / Всё ради Джексона / Anything for Jackson (2020) BDRip 720p от ExKinoRay | iTunes, BadBajo

0 | 0

4.76 ГБ

В этой теме нет новых непрочитанных сообщений. Сожжение / The Burning (1981) BDRip 720p | L1

0 | 2

3.53 ГБ

В этой теме нет новых непрочитанных сообщений. Огненный ринг / Cowboy Up (2001) WEB-DL 720p | P

0 | 0

3.31 ГБ

В этой теме нет новых непрочитанных сообщений. Работяга / Hataraki Man / Working Man [S01] (2006) BDRip 720p | L1

0 | 10

2.71 ГБ




Вы не можете начинать темы
Вы не можете отвечать на сообщения
Вы не можете редактировать свои сообщения
Вы не можете удалять свои сообщения
Вы не можете добавлять вложения

Перейти:  
Контактная информация: rstracker[пёсик]yandex.ru
 Вход
ppkBB3cker v.2 © 2008-2014 @ PPK
[ Time : 0.030s | 20 Queries | GZIP : Off ]

cron