img image001 image001 image001 image001 image001 image001 image001 image001 image001 image001 image001 image001 image001 image001 image001

Planets Sun Sun Sun
Статистика раздачи
Автор: Снежана | Размер: 678.28 МБ | Добавлен: 27 июл 2013
Раздают: 14    Качают: 4
Скачать торрент
Скачать торрент
Описание торрента

СообщениеДобавлено: 27 июл 2013 

#77

Информация о фильме
Название: Каена: пророчество
Оригинальное название: Kaena: La prophetie
Год выхода: 2003
Жанр: фантастика, фэнтези, приключения, мультфильм
Режиссер: Крис Делапорт,Chris Delaporte,Паскаль Пиньон,Pascal Pinon.
В ролях: Кирстен Данст,Kirsten Dunst,Ричард Харрис,Richard Harris,Анжелика Хьюстон,Anjelica Huston,Кейт Дэвид,Keith David,Майкл МакШейн,Michael McShane,Грег Прупс,Greg Proops.

О фильме: На вершине Аксиса, огромного вертикального мира, где-то за облаками находится деревня Каены. Никто из жителей не покидал ее пределов. Но девушка считает, что рядом есть еще миры и что сама она другая! Бунтарский дух влечет Каену в неизведанное. Наперекор табу Великого Жреца она пускается в отчаянный поход. И попадает в странный мир с невиданными существами!.. Ей суждено проникнуть в тайну, которой много сотен лет!

«Кае́на: Проро́чество» (англ. Kaena: The Prophecy, также известен как фр. Kaena: La prophétie) — франко-канадский компьютерный анимационный фильм 2003 года. Первый европейский компьютерно анимированный проект. Название фильма несколько раз менялось: вначале - "Аксис"(или "Эксиз"), затем - "Каена", в конце концов - "Каена: Пророчество". Компании-производители - Studio Canal, TVA International. Начало съемок - 1999 (Париж). Бюджет - 27 миллионов долларов. По мотивам фильма уже создана компьютерная игра.

# Sony Pictures — Kaena: The Prophecy(англ.)

Выпущено: Bénédicte Brunet
Sony Pictures
Продолжительность: 85 мин
Перевод: профессиональный многоголосный

Качество: DVDRip.
Format : AVI
Format/Info : Audio Video Interleave
File size : 678 MiB
Duration : 1h 27mn
Overall bit rate : 1 085 Kbps
Video
Format : MPEG-4 Visual
Codec ID : DIV3
Codec ID/Hint : DivX 3 Low
Duration : 1h 27mn
Bit rate : 947 Kbps
Width : 576 pixels
Height : 320 pixels
Display aspect ratio : 16/9
Frame rate : 25.000 fps
Resolution : 24 bits
Bits/(Pixel*Frame) : 0.206
Stream size : 592 MiB (87%)
Title : mpeg2avi {IDCT32MMX} '-q1'
Audio
Format : MPEG Audio
Format version : Version 1
Format profile : Layer 3
Codec ID : 55
Codec ID/Hint : MP3
Duration : 1h 27mn
Bit rate mode : Constant
Bit rate : 128 Kbps
Channel(s) : 2 channels
Sampling rate : 48.0 KHz
Resolution : 16 bits
Stream size : 80.0 MiB (12%)
Alignment : Split accross interleaves
Interleave, duration : 40 ms (1.00 video frame)
Title : Драйвер звукозаписи Microsoft: audio.wav
Writing library : LAME3.91
Encoding settings : CBR



   Похожие торренты   Торрент   Размер 
В этой теме нет новых непрочитанных сообщений. Каена: Пророчество / Kaena: La prophetie / Kaena: The Prophecy (2003) HDRip 720p

143 | 148

2.89 ГБ

В этой теме нет новых непрочитанных сообщений. Каена: Пророчество / Kaena: La prophetie (2003) DVDRip

15 | 9

1.24 ГБ

В этой теме нет новых непрочитанных сообщений. Каена: пророчество / Kaena: La prophetie (2003) DVD5 от Youtracker | P | Сжатый

0 | 4

4.33 ГБ

В этой теме нет новых непрочитанных сообщений. Каена: пророчество / Kaena: La prophetie (2003) DVD9 от Youtracker | P | Лицензия

1 | 9

5.19 ГБ

В этой теме нет новых непрочитанных сообщений. Пророчество 2 / The Prophecy II (1998) DVDRip

33 | 5

1.45 ГБ

В этой теме нет новых непрочитанных сообщений. Пророчество / The Prophecy (1995) DVDRip

5 | 11

1.37 ГБ

В этой теме нет новых непрочитанных сообщений. Последнее пророчество / The Garden (2006) DVDRip-AVC | P

159 | 32

1.59 ГБ




Вы не можете начинать темы
Вы не можете отвечать на сообщения
Вы не можете редактировать свои сообщения
Вы не можете удалять свои сообщения
Вы не можете добавлять вложения

Перейти:  
Для Мосгорсуда, Роскомнадзора и рекламодателей: mosgorsud-torrent[собачка]yandex.ru
 Вход
ppkBB3cker v.2 © 2008-2014 @ PPK
[ Time : 0.166s | 14 Queries | GZIP : On ]

Торрент трекер RUTOR.IN, Не можете зайти на rutor.org? Какой новый адрес рутор? Какое зеркало рутор? Не работает rutor.org и зеркала? Тогда наш торрент специально для вас. Rutor.in неофициальное зеркало rutor. В случае если у Вас заблокирован rutor или вдруг Вы не можете на него зайти, то Вы без труда сможете скачать бесплатно и без рекламы последние новинки кино, игр, сериалов и прочего у нас, на Rutor.in. Не нужно использовать прокси, чтобы зайти на рутор, достаточно воспользоваться нашим ресурсом. Все новые фильмы, игры, сериалы, книги и музыка за 2013 и 2014 годы через торрент бесплатно. Скачивайте фильмы в хорошем качестве, игры для пк, xbox, playstation без регистрации. У нас вы найдете новые Зарубежные сериалы и Русские сериалы 2013, 2014, 2015 годов. Оставайтесь с нами, качайте любимые фильмы, игры, сериалы, книги и музыку.