img image001 image001 image001 image001 image001 image001 image001 image001 image001 image001 image001 image001 image001 image001 image001

Planets Sun Sun Sun
Статистика раздачи
Автор: Снежана | Размер: 699.96 МБ | Добавлен: 27 июл 2013
Раздают: 7    Качают: 5
Скачать торрент
Скачать торрент
Описание торрента

СообщениеДобавлено: 27 июл 2013 

#77

Название фильма: Панчинелло. Зелёный нос
Оригинальное название: If I Only Had a Green Nose
Год выхода: 2003
Страна: США
Режисер: Todd Waterman
Продолжительность: 00:27:44
Перевод: профессиональный, многоголосый

О фильме:
Продолжение мультфильма "Ты особенный" по мотивам рассказа одного из самых популярных детских писателей Макса Лукадо.
И снова Панчинелло со своими друзьями попадает в гущу событий. В Веммиксвиль приезжает Вилли Визит и привозит новое веяние. Зеленый Нос - Последний хит сезона! Весь город, не желая отставать от моды, выстраивается в очередь, чтобы изменить свою внешность. Очень скоро Панчинелло понимает, что изменение внешности и подражание другим не приносит счастья.

Видео: XviD 1.2.0.dev47 (UTC 2006-11-01)
Аудио: MPEG Audio, 320 Kbps, 48.0 KHz

Format : AVI
Format/Info : Audio Video Interleave
File size : 700 MiB
Duration : 27mn 44s
Overall bit rate : 3 528 Kbps
Writing application : VirtualDubMod 1.5.4.1 (build 2178/release)
Writing library : VirtualDubMod build 2178/release

Video
ID : 0
Format : MPEG-4 Visual
Format profile : AdvancedSimple@L5
Format settings, BVOP : Yes
Format settings, QPel : No
Format settings, GMC : No warppoints
Format settings, Matrix : Custom
Codec ID : XVID
Codec ID/Hint : XviD
Duration : 27mn 44s
Bit rate : 3 201 Kbps
Width : 720 pixels
Height : 544 pixels
Display aspect ratio : 4:3
Frame rate : 25.000 fps
Resolution : 24 bits
Colorimetry : 4:2:0
Scan type : Progressive
Bits/(Pixel*Frame) : 0.327
Stream size : 635 MiB (91%)
Writing library : XviD 1.2.0.dev47 (UTC 2006-11-01)

Audio
ID : 1
Format : MPEG Audio
Format version : Version 1
Format profile : Layer 3
Codec ID : 55
Codec ID/Hint : MP3
Duration : 27mn 44s
Bit rate mode : Constant
Bit rate : 320 Kbps
Channel(s) : 2 channels
Sampling rate : 48.0 KHz
Resolution : 16 bits
Stream size : 63.5 MiB (9%)
Alignment : Aligned on interleaves
Interleave, duration : 80 ms (2.00 video frames)
Interleave, preload duration : 504 ms
Writing library : LAME3.97
Encoding settings : -m j -V 4 -q 2 -lowpass 20.5


Скриншоты:




   Похожие торренты   Торрент   Размер 
В этой теме нет новых непрочитанных сообщений. Зеленый чай / Green Tea (2003) DVDRip

0 | 1

2 ГБ

В этой теме нет новых непрочитанных сообщений. Зеленый лед / Green Ice (1981) DVDRip от NovaLan

6 | 2

1.47 ГБ

В этой теме нет новых непрочитанных сообщений. Зелёный Шершень / The Green Hornet (2011) DVDRip-AVC

0 | 3

1.45 ГБ

В этой теме нет новых непрочитанных сообщений. Зеленый сойлент / Soylent Green (1973) DVDRip

132 | 6

701.61 МБ

В этой теме нет новых непрочитанных сообщений. Зелёный Шершень / The Green Hornet (2011) DVDRip

1 | 1

2.05 ГБ

В этой теме нет новых непрочитанных сообщений. Зелёный Шершень / The Green Hornet (2011) DVDRip-AVC от FireBit

4 | 3

2.18 ГБ

В этой теме нет новых непрочитанных сообщений. Зелёный Шершень / The Green Hornet (2011) DVDRip-AVC | Лицензия

2 | 3

2.18 ГБ




Вы не можете начинать темы
Вы не можете отвечать на сообщения
Вы не можете редактировать свои сообщения
Вы не можете удалять свои сообщения
Вы не можете добавлять вложения

Перейти:  
Для Мосгорсуда, Роскомнадзора и рекламодателей: mosgorsud-torrent[собачка]yandex.ru
 Вход
ppkBB3cker v.2 © 2008-2014 @ PPK
[ Time : 0.034s | 15 Queries | GZIP : Off ]

cron