img image001 image001 image001 image001 image001 image001 image001 image001 image001 image001 image001 image001 image001 image001 image001

Planets Sun Sun Sun
Статистика раздачи
Автор: Снежана | Размер: 700.5 МБ | Добавлен: 27 июл 2013
Раздают: 96    Качают: 12
Скачать торрент
Скачать торрент
Описание торрента

СообщениеДобавлено: 27 июл 2013 

#77

Название: Дорога на Эльдорадо
Оригинальное название: The Road to El Dorado
Год выпуска: 2000
Жанр: Комедия, приключения, семейный, мультфильм
Выпущено:США, DreamWorks SKG
Продолжительность: 01:25:37
Перевод: Профессиональный многоголосый
Режиссер: Бибо Бержерон, Уилл Финн, Дон Пол

В ролях: Кевин Клайн, Кеннет Брана, Рози Перез, Арманд Ассанте, Эдвард Джеймс Олмос, Джим Каммингс, Фрэнк Уэлкер, Тобин Белл, Элайджа Чианг

О фильме:
Тульо и Мигель, герои этой полнометражной мультипликационной картины, предпочитают не зарабатывать деньги тяжелым трудом. Эти два отпетых мошенника обожают, когда золотишко само идет к ним в руки. Случилось так, что этим проходимцам крупно повезло. Им посчастливилось найти таинственную карту, на которой обозначен величественный Город Золота, мифический Эльдорадо. Вместе со знаменитым конкистадором Эрнаном Кортесом приятели отправляются в рискованное путешествием за сокровищами к берегам далекой Америки.

МЕДИАИНФОРМАЦИЯ:

C:Новая папка (2)Doroga na Eldorado.avi
General
Complete name : C:Новая папка (2)Doroga na Eldorado.avi
Format : AVI
Format/Info : Audio Video Interleave
File size : 700 MiB
Duration : 1h 25mn
Overall bit rate : 1 144 Kbps
Video #0
ID : 0
Format : MPEG-4 Visual
Format profile : Simple@L3
Format settings, BVOP : Yes
Format settings, QPel : No
Format settings, GMC : No warppoints
Format settings, Matrix : Default (MPEG)
Muxing mode : Packed bitstream
Codec ID : DIVX
Codec ID/Info : Project Mayo
Codec ID/Hint : DivX 4
Duration : 1h 25mn
Bit rate : 1 010 Kbps
Width : 656 pixels
Height : 368 pixels
Display aspect ratio : 16:9
Frame rate : 25.000 fps
Resolution : 24 bits
Colorimetry : 4:2:0
Scan type : Progressive
Bits/(Pixel*Frame) : 0.167
Stream size : 619 MiB (88%)
Writing library : XviD 1.0.2 (UTC 2004-08-29)
Audio #1
ID : 1
Format : MPEG Audio
Format version : Version 1
Format profile : Layer 3
Codec ID : 55
Codec ID/Hint : MP3
Duration : 1h 25mn
Bit rate mode : Constant
Bit rate : 128 Kbps
Channel(s) : 2 channels
Sampling rate : 48.0 KHz
Resolution : 16 bits
Stream size : 78.4 MiB (11%)
Alignment : Split accross interleaves
Interleave, duration : 200 ms (5.00 video frames)






   Похожие торренты   Торрент   Размер 
В этой теме нет новых непрочитанных сообщений. Дорога на Эльдорадо / The Road to El Dorado (2000) DVDRip | D

231 | 22

1.46 ГБ

В этой теме нет новых непрочитанных сообщений. Дорога на Эльдорадо / The Road to El Dorado (2000) DVDRip | D

53 | 7

744.77 МБ

В этой теме нет новых непрочитанных сообщений. Дорога на Эльдорадо / The Road to El Dorado (2000) WEB-DL 1080p | D

147 | 25

6.54 ГБ

В этой теме нет новых непрочитанных сообщений. Дорога на Эльдорадо / The Road to El Dorado (2000) HDDVDRip (720p)

68 | 12

4.11 ГБ

В этой теме нет новых непрочитанных сообщений. Эльдорадо / El Dorado (1966) DVDRip от Generalfilm

3 | 2

2.06 ГБ

В этой теме нет новых непрочитанных сообщений. Эльдорадо / El Dorado (1988) DVDRip от ExKinoRay

190 | 38

2.06 ГБ

В этой теме нет новых непрочитанных сообщений. Эльдорадо / El Dorado [2 части из 2] (2010) DVDRip - LOOK - Firebit

38 | 21

2.78 ГБ




Вы не можете начинать темы
Вы не можете отвечать на сообщения
Вы не можете редактировать свои сообщения
Вы не можете удалять свои сообщения
Вы не можете добавлять вложения

Перейти:  
Для Мосгорсуда, Роскомнадзора и рекламодателей: mosgorsud-torrent[собачка]yandex.ru
 Вход
ppkBB3cker v.2 © 2008-2014 @ PPK
[ Time : 0.047s | 15 Queries | GZIP : Off ]

Торрент трекер RUTOR.IN, Не можете зайти на rutor.org? Какой новый адрес рутор? Какое зеркало рутор? Не работает rutor.org и зеркала? Тогда наш торрент специально для вас. Rutor.in неофициальное зеркало rutor. В случае если у Вас заблокирован rutor или вдруг Вы не можете на него зайти, то Вы без труда сможете скачать бесплатно и без рекламы последние новинки кино, игр, сериалов и прочего у нас, на Rutor.in. Не нужно использовать прокси, чтобы зайти на рутор, достаточно воспользоваться нашим ресурсом. Все новые фильмы, игры, сериалы, книги и музыка за 2013 и 2014 годы через торрент бесплатно. Скачивайте фильмы в хорошем качестве, игры для пк, xbox, playstation без регистрации. У нас вы найдете новые Зарубежные сериалы и Русские сериалы 2013, 2014, 2015 годов. Оставайтесь с нами, качайте любимые фильмы, игры, сериалы, книги и музыку.