img image001 image001 image001 image001 image001 image001 image001 image001 image001 image001 image001 image001 image001 image001 image001

Planets Sun Sun Sun
Статистика раздачи
Автор: Снежана | Размер: 130.45 МБ | Добавлен: 27 июл 2013
Раздают: 188    Качают: 6
Скачать торрент
Скачать торрент
Описание торрента

СообщениеДобавлено: 27 июл 2013 

#77



Информация о фильме:

Название: Бобик в гостях у Барбоса
Оригинальное название: Bobik v gostyakh u Barbosa
Год выхода: 1977
Жанр: Комедия, Советский мультфильм, Союзмультфильм, Анимация



Режиссер: Владимир Попов
Сценаристы: М.Либин и Николай Носов
Оператор: Кабул Расулов
Композитор: Владимир Комаров



Роли озвучивали: Юрий Никулин /Бобик/, Олег Табаков /Барбос/



Описание: Человек собаке друг - это знают все вокруг!



Страна: СССР
Выпущено: Союзмультфильм
Продолжительность: 00:08:36
Перевод: Не требуется









Format : AVI
Format/Info : Audio Video Interleave
File size : 130 MiB
Duration : 8mn 36s
Overall bit rate : 2 121 Kbps
Writing application : VirtualDubMod 1.5.10.2 (build 2540/release)
Writing library : VirtualDubMod build 2540/release

Video
ID : 0
Format : MPEG-4 Visual
Format profile : Advanced Simple@L5
Format settings, BVOP : Yes
Format settings, QPel : No
Format settings, GMC : No warppoints
Format settings, Matrix : Default (H.263)
Codec ID : XVID
Codec ID/Hint : XviD
Duration : 8mn 36s
Bit rate : 1 791 Kbps
Width : 800 pixels
Height : 600 pixels
Display aspect ratio : 4:3
Frame rate : 25.000 fps
Color space : YUV
Chroma subsampling : 4:2:0
Bit depth : 8 bits
Scan type : Progressive
Bits/(Pixel*Frame) : 0.149
Stream size : 110 MiB (84%)
Writing library : XviD 1.2.1 (UTC 2008-12-04)

Audio
ID : 1
Format : MPEG Audio
Format version : Version 1
Format profile : Layer 3
Codec ID : 55
Codec ID/Hint : MP3
Duration : 8mn 35s
Bit rate mode : Variable
Bit rate : 317 Kbps
Channel(s) : 2 channels
Sampling rate : 48.0 KHz
Stream size : 19.5 MiB (15%)
Alignment : Aligned on interleaves
Interleave, duration : 24 ms (0.60 video frame)
Interleave, preload duration : 58 ms
Writing library : LAME3.98r
Encoding settings : -m s -V 4 -q 2 -lowpass 20.5 --abr




Качество: DVDRip /Исходник DVD5/
Формат: AVI
Видео кодек: XviD
Аудио кодек: MP3
Видео: 800x600 (1.33:1), 25 fps, XviD build 50 ~1790 kbps avg, 0.15 bit/pixel
Аудио: 48 kHz, MPEG Layer 3, 2 ch, ~317.06 kbps avg











   Похожие торренты   Торрент   Размер 
В этой теме нет новых непрочитанных сообщений. Бобик в гостях у Барбоса (1977) DVDRip-AVC

9 | 1

94.25 МБ

В этой теме нет новых непрочитанных сообщений. Бобик в гостях у Барбоса (1977) DVDRip

22 | 4

125.87 МБ

В этой теме нет новых непрочитанных сообщений. Бобик в гостях у Барбоса (1977) DVDRip-AVC

30 | 5

150.3 МБ

В этой теме нет новых непрочитанных сообщений. Бобик в гостях у Барбоса (1977) DVDRip от MediaClub | КПК

177 | 14

39.07 МБ

В этой теме нет новых непрочитанных сообщений. Бобик в гостях у Барбоса (1977) DVDRemux

97 | 5

566.13 МБ

В этой теме нет новых непрочитанных сообщений. Бобик в гостях у Барбоса (1977) BDRip-AVC от SuperMin

797 | 63

138.65 МБ

В этой теме нет новых непрочитанных сообщений. Бобик в гостях у Барбоса (1977) BDRip 720p

162 | 6

101.95 МБ




Вы не можете начинать темы
Вы не можете отвечать на сообщения
Вы не можете редактировать свои сообщения
Вы не можете удалять свои сообщения
Вы не можете добавлять вложения

Перейти:  
Для Мосгорсуда, Роскомнадзора и рекламодателей: mosgorsud-torrent[собачка]yandex.ru
 Вход
ppkBB3cker v.2 © 2008-2014 @ PPK
[ Time : 0.042s | 17 Queries | GZIP : Off ]

cron