img image001 image001 image001 image001 image001 image001 image001 image001 image001 image001 image001 image001 image001 image001 image001

Planets Sun Sun Sun
Статистика раздачи
Автор: Снежана | Размер: 1.5 ГБ | Добавлен: 27 июл 2013
Раздают: 12    Качают: 3
Скачать торрент
Скачать торрент
Описание торрента

СообщениеДобавлено: 27 июл 2013 



Бесподобный мистер Лис / Бесподобный мистер Фокс / Fantastic Mr. Fox [2009 г., Сказка, мультфильм, HDRip-AVC]
Год выпуска: 2009
Страна: США
Жанр: Сказка, мультфильм
Продолжительность: 01:26:44
Перевод: Профессиональный (дублированный)
Русские субтитры: есть

Режиссер: Уэс Андерсон / Wes Anderson

В ролях: Джордж Клуни, Мэрил Стрип, Джейсон Шварцман, Билл Мюррэй, Уоллес Володарски, Эрик Чейз Андерсон, Майкл Гэмбон, Уиллем Дефо, Оуэн Уилсон, Джарвис Кокер

Описание: Разъяренные фермеры, уставшие от постоянных нападок хитрого лиса на их курятники, готовятся уничтожить своего врага и его «хитрое» семейство.

Доп. информация:



СЭМПЛ

Автор рипа: chopper887

Качество: HDRip-AVC(Исх.BD720)
Формат: MKV
Видео кодек: H.264
Аудио кодек: AC3
Видео: 1024x560 , 23,976 кадр/сек, 1588 Кбит/сек
Аудио: AC3 384 kbps 48000 Hz 6 ch RUS
Аудио: AC3 384 kbps 48000 Hz 6 ch ENG
Субтитры: русские , английские
General
Complete name : J:Fantastic.Mr.Fox.chopper887.mkv
Format : Matroska
File size : 1.50 GiB
Duration : 1h 26mn
Overall bit rate : 2 468 Kbps
Movie name : Fantastic.Mr.Fox.Dub.chopper887
Encoded date : UTC 2010-09-06 06:27:21
Writing application : mkvmerge v3.0.0 ('Hang up your Hang-Ups') built on Dec 12 2009 15:20:35
Writing library : libebml v0.7.9 + libmatroska v0.8.1

Video
ID : 1
Format : AVC
Format/Info : Advanced Video Codec
Format profile : High@L4.1
Format settings, CABAC : Yes
Format settings, ReFrames : 8 frames
Muxing mode : Container profile=Unknown@4.1
Codec ID : V_MPEG4/ISO/AVC
Duration : 1h 26mn
Bit rate : 1 587 Kbps
Nominal bit rate : 1 634 Kbps
Width : 1 024 pixels
Height : 560 pixels
Display aspect ratio : 16:9
Frame rate : 23.976 fps
Resolution : 24 bits
Colorimetry : 4:2:0
Scan type : Progressive
Bits/(Pixel*Frame) : 0.115
Stream size : 984 MiB (64%)
Title : Fantastic.Mr.Fox.Dub.chopper887
Writing library : x264 core 80 r1376M 3feaec2
Encoding settings : cabac=1 / ref=8 / deblock=1:-2:-1 / analyse=0x3:0x113 / me=umh / subme=9 / psy=1 / psy_rd=1.0:0.1 / mixed_ref=0 / me_range=24 / chroma_me=1 / trellis=2 / 8x8dct=1 / cqm=0 / deadzone=21,11 / fast_pskip=0 / chroma_qp_offset=-3 / threads=3 / sliced_threads=0 / nr=1 / decimate=0 / mbaff=0 / constrained_intra=0 / bframes=8 / b_pyramid=0 / b_adapt=2 / b_bias=0 / direct=1 / wpredb=0 / wpredp=0 / keyint=250 / keyint_min=25 / scenecut=40 / rc_lookahead=60 / rc=2pass / mbtree=1 / bitrate=1634 / ratetol=1.0 / qcomp=0.60 / qpmin=10 / qpmax=51 / qpstep=4 / cplxblur=20.0 / qblur=0.5 / ip_ratio=1.40 / aq=1:1.00
Language : English

Audio #1
ID : 2
Format : AC-3
Format/Info : Audio Coding 3
Codec ID : A_AC3
Duration : 1h 26mn
Bit rate mode : Constant
Bit rate : 448 Kbps
Channel(s) : 6 channels
Channel positions : Front: L C R, Surround: L R, LFE
Sampling rate : 48.0 KHz
Stream size : 278 MiB (18%)
Title : Дубляж

Audio #2
ID : 3
Format : AC-3
Format/Info : Audio Coding 3
Codec ID : A_AC3
Duration : 1h 26mn
Bit rate mode : Constant
Bit rate : 384 Kbps
Channel(s) : 6 channels
Channel positions : Front: L C R, Surround: L R, LFE
Sampling rate : 48.0 KHz
Stream size : 238 MiB (16%)
Title : Английский

Text #1
ID : 4
Format : UTF-8
Codec ID : S_TEXT/UTF8
Codec ID/Info : UTF-8 Plain Text
Title : Русские

Text #2
ID : 5
Format : UTF-8
Codec ID : S_TEXT/UTF8
Codec ID/Info : UTF-8 Plain Text
Title : Русские-2-вариант

Text #3
ID : 6
Format : UTF-8
Codec ID : S_TEXT/UTF8
Codec ID/Info : UTF-8 Plain Text
Title : Английские






   Похожие торренты   Торрент   Размер 
В этой теме нет новых непрочитанных сообщений. Бесподобный мистер Лис / Бесподобный мистер Фокс / Fantastic Mr. Fox (2009) HDRip

105 | 4

1.9 ГБ

В этой теме нет новых непрочитанных сообщений. Бесподобный мистер Фокс / Бесподобный мистер Лис / Fantastic Mr. Fox (2009) BDRip от HQCLUB

205 | 5

1.46 ГБ

В этой теме нет новых непрочитанных сообщений. Бесподобный мистер Фокс / Fantastic Mr. Fox (2009) HDRip

4 | 4

699.23 МБ

В этой теме нет новых непрочитанных сообщений. Бесподобный мистер Фокс / Fantastic Mr. Fox (2009) HDRip | Лицензия

4 | 4

1.36 ГБ

В этой теме нет новых непрочитанных сообщений. Бесподобный мистер Фокс / Fantastic Mr. Fox (2009) Blu-Ray

2 | 2

29.02 ГБ

В этой теме нет новых непрочитанных сообщений. Бесподобный мистер Фокс / Fantastic Mr. Fox (2009) BDRemux

18 | 3

17.25 ГБ

В этой теме нет новых непрочитанных сообщений. Бесподобный мистер Фокс / Fantastic Mr. Fox (2009) BDRip 1080p

90 | 4

6.5 ГБ




Вы не можете начинать темы
Вы не можете отвечать на сообщения
Вы не можете редактировать свои сообщения
Вы не можете удалять свои сообщения
Вы не можете добавлять вложения

Перейти:  
Для Мосгорсуда, Роскомнадзора и рекламодателей: mosgorsud-torrent[собачка]yandex.ru
 Вход
ppkBB3cker v.2 © 2008-2014 @ PPK
[ Time : 0.022s | 15 Queries | GZIP : Off ]

Торрент трекер RUTOR.IN, Не можете зайти на rutor.org? Какой новый адрес рутор? Какое зеркало рутор? Не работает rutor.org и зеркала? Тогда наш торрент специально для вас. Rutor.in неофициальное зеркало rutor. В случае если у Вас заблокирован rutor или вдруг Вы не можете на него зайти, то Вы без труда сможете скачать бесплатно и без рекламы последние новинки кино, игр, сериалов и прочего у нас, на Rutor.in. Не нужно использовать прокси, чтобы зайти на рутор, достаточно воспользоваться нашим ресурсом. Все новые фильмы, игры, сериалы, книги и музыка за 2013 и 2014 годы через торрент бесплатно. Скачивайте фильмы в хорошем качестве, игры для пк, xbox, playstation без регистрации. У нас вы найдете новые Зарубежные сериалы и Русские сериалы 2013, 2014, 2015 годов. Оставайтесь с нами, качайте любимые фильмы, игры, сериалы, книги и музыку.