img image001 image001 image001 image001 image001 image001 image001 image001 image001 image001 image001 image001 image001 image001 image001

Planets Sun Sun Sun
Статистика раздачи
Автор: Снежана | Размер: 1 ГБ | Добавлен: 27 июл 2013
Раздают: 4    Качают: 2
Скачать торрент
Скачать торрент
Описание торрента

СообщениеДобавлено: 27 июл 2013 


Информация о фильме
Название: Шевели ластами!
Оригинальное название: Sammy's avonturen: De geheime
Год выхода: 2010
Жанр: Приключения, мультфильм
Режиссер: Бен Стассен
Роли дублировали: Максим Аверин, Тимур Родригез
О фильме:
Для маленькой черепашки подводный мир — самое безопасное место. Здесь акулы, пираньи, змеи, а на берегу поджидают люди. И наш маленький Сэмми хочет узнать весь мир, от полярных льдов до субтропиков. Путешествие продлится ровно полвека, начиная с 1959 года, за это время даже климат успеет измениться.
Страна: Бельгия
Студия: Illuminata Pictures
Продолжительность: 01:10:31
Перевод: Дублированный [лицензия]
Файл
Кодек: x264
Формат: MKV
Качество: DVDRip (AVC)
Видео: 720x448 @ 1024x448 (2.25:1), 25 fps, MPEG-4 AVC ~1643 kbps avg, 0.204 bit/pixel
Звук: 48 kHz, AC3 Dolby Digital, 3/2 (L,C,R,l,r) + LFE ch, ~384.00 kbps avg
Рип не будет воспроизводиться на плеерах, которые не поддерживают кодеки H.264
Семпл
АR=2.25:1, такой же и на оригинальном DVD.
Автор рипа - cXn

General
Complete name : Sheveli.lastami.2010.x264.DVDRip-AVC.mkv
Format : Matroska
File size : 1.00 GiB
Duration : 1h 10mn
Overall bit rate : 2 031 Kbps
Movie name : Sheveli lastami (2010) - cXn
Encoded date : UTC 2010-10-14 08:22:23
Writing application : mkvmerge v4.3.0 ('Escape from the Island') сборка от Sep 5 2010 10:30:51
Writing library : libebml v1.0.0 + libmatroska v1.0.0
Cover : Pos_1 / Pos_2 / Pos_3
Video
ID : 1
Format : AVC
Format/Info : Advanced Video Codec
Format profile : High@L3.1
Format settings, CABAC : Yes
Format settings, ReFrames : 12 frames
Muxing mode : Container profile=Unknown@3.1
Codec ID : V_MPEG4/ISO/AVC
Duration : 1h 10mn
Bit rate : 1 643 Kbps
Width : 720 pixels
Height : 448 pixels
Display aspect ratio : 2.25:1
Frame rate : 25.000 fps
Color space : YUV
Chroma subsampling : 4:2:0
Bit depth : 8 bits
Scan type : Progressive
Bits/(Pixel*Frame) : 0.204
Stream size : 810 MiB (79%)
Writing library : x264 core 105 r1724 b02df7b
Encoding settings : cabac=1 / ref=12 / deblock=1:-1:-1 / analyse=0x3:0x133 / me=umh / subme=9 / psy=1 / psy_rd=1.01:0.00 / mixed_ref=1 / me_range=32 / chroma_me=1 / trellis=2 / 8x8dct=1 / cqm=0 / deadzone=21,11 / fast_pskip=0 / chroma_qp_offset=-2 / threads=3 / sliced_threads=0 / nr=0 / decimate=1 / interlaced=0 / constrained_intra=0 / bframes=3 / b_pyramid=2 / b_adapt=2 / b_bias=0 / direct=1 / weightb=1 / open_gop=0 / weightp=2 / keyint=250 / keyint_min=25 / scenecut=40 / intra_refresh=0 / rc_lookahead=40 / rc=2pass / mbtree=1 / bitrate=1643 / ratetol=1.0 / qcomp=0.60 / qpmin=10 / qpmax=51 / qpstep=4 / cplxblur=20.0 / qblur=0.5 / ip_ratio=1.40 / aq=1:1.00
Audio
ID : 2
Format : AC-3
Format/Info : Audio Coding 3
Mode extension : CM (complete main)
Codec ID : A_AC3
Duration : 1h 10mn
Bit rate mode : Constant
Bit rate : 384 Kbps
Channel(s) : 6 channels
Channel positions : Front: L C R, Side: L R, LFE
Sampling rate : 48.0 KHz
Bit depth : 16 bits
Stream size : 194 MiB (19%)
Language : Russian




   Похожие торренты   Торрент   Размер 
В этой теме нет новых непрочитанных сообщений. Шевели ластами! / Sammy's avonturen: De geheime doorgang (2010) DVDRip | Лицензия

34 | 2

698.43 МБ

В этой теме нет новых непрочитанных сообщений. Шевели ластами! / Sammy's avonturen: De geheime doorgang (2010) DVDRip | лицензия

7 | 3

1.36 ГБ

В этой теме нет новых непрочитанных сообщений. Шевели ластами! / Sammy's avonturen: De geheime doorgang (2010) HDRip | Лицензия

25 | 7

1.37 ГБ

В этой теме нет новых непрочитанных сообщений. Шевели ластами! / Sammy's avonturen: De geheime doorgang (2010) BDRemux от FREEISLAND

1 | 2

11.04 ГБ

В этой теме нет новых непрочитанных сообщений. Шевели ластами ! / Sammy's avonturen: De geheime doorgang (2010) HDRip от FREEISLAND

29 | 3

701.32 МБ

В этой теме нет новых непрочитанных сообщений. Шевели ластами! / Sammy's avonturen: De geheime doorgang (2010) BDRip 1080p

16 | 4

3.04 ГБ

В этой теме нет новых непрочитанных сообщений. Шевели ластами ! / Sammy's avonturen: De geheime doorgang (2010) BDRip 720p от FREEISLAND

241 | 9

2.18 ГБ




Вы не можете начинать темы
Вы не можете отвечать на сообщения
Вы не можете редактировать свои сообщения
Вы не можете удалять свои сообщения
Вы не можете добавлять вложения

Перейти:  
Для Мосгорсуда, Роскомнадзора и рекламодателей: mosgorsud-torrent[собачка]yandex.ru
 Вход
ppkBB3cker v.2 © 2008-2014 @ PPK
[ Time : 1.248s | 14 Queries | GZIP : Off ]

Торрент трекер RUTOR.IN, Не можете зайти на rutor.org? Какой новый адрес рутор? Какое зеркало рутор? Не работает rutor.org и зеркала? Тогда наш торрент специально для вас. Rutor.in неофициальное зеркало rutor. В случае если у Вас заблокирован rutor или вдруг Вы не можете на него зайти, то Вы без труда сможете скачать бесплатно и без рекламы последние новинки кино, игр, сериалов и прочего у нас, на Rutor.in. Не нужно использовать прокси, чтобы зайти на рутор, достаточно воспользоваться нашим ресурсом. Все новые фильмы, игры, сериалы, книги и музыка за 2013 и 2014 годы через торрент бесплатно. Скачивайте фильмы в хорошем качестве, игры для пк, xbox, playstation без регистрации. У нас вы найдете новые Зарубежные сериалы и Русские сериалы 2013, 2014, 2015 годов. Оставайтесь с нами, качайте любимые фильмы, игры, сериалы, книги и музыку.