img image001 image001 image001 image001 image001 image001 image001 image001 image001 image001 image001 image001 image001 image001 image001

Planets Sun Sun Sun
Статистика раздачи
Автор: Снежана | Размер: 304.62 МБ | Добавлен: 27 июл 2013
Раздают: 79    Качают: 11
Скачать торрент
Скачать торрент
Описание торрента

СообщениеДобавлено: 27 июл 2013 

#77

Страна: США
Жанр: Приключения, мультфильм, короткометражка
Продолжительность: 00:24:36
Год выпуска: 2010
Перевод: Любительский (многоголосый закадровый) Kapets

Режиссёр: Хоаким Дос Сантос / Joaquim Dos Santos

Описание: Короткометражная анимация, в которой главным героем станет совсем юный и невзрачный парень по имени Били Баксон, ведь именно на его плечи ляжет огромная ответственность и невероятный подарок от древнего божества. Получив сверхсилы и божественный дух, он должен объединиться с Суперменом, чтобы противостоять непобедимому Черном Адаму, который используя свои магические силы, намерена уничтожить мир
Релиз от:

Сэмпл

Качество: DVDRip
Формат: AVI
Видео: XviD, 720x416, 23.976 fps, 1528 Kbps
Аудио: AC3, 48 KHz, 2 ch, 192 Kbps
Субтитры: Отсутствуют
Роли озвучивали:
АртурЧЕГ - Билли Батсон
Beyz - Тауни, Капитан Марвел
Cyril - рыжий парень грабящий бомжа
TeT_Reс - Чародей Шазам, Чёрный Адам
Ира - девушка в автомобиле в самом начале мультфильма
Kapets - Супермен, голос за кадром, парень в автомобиле в самом начале мультфильма
Перевод: Kapets
General
Complete name : The.Return.of.Black.Adam.2010.NTSC.BR2DVD.avi
Format : AVI
Format/Info : Audio Video Interleave
File size : 305 MiB
Duration : 24mn 36s
Overall bit rate : 1 731 Kbps

Video
ID : 0
Format : MPEG-4 Visual
Format profile : Advanced Simple@L5
Format settings, BVOP : Yes
Format settings, QPel : No
Format settings, GMC : No warppoints
Format settings, Matrix : Custom
Codec ID : XVID
Codec ID/Hint : XviD
Duration : 24mn 36s
Bit rate : 1 529 Kbps
Width : 720 pixels
Height : 416 pixels
Display aspect ratio : 16:9
Frame rate : 23.976 fps
Resolution : 8 bits
Colorimetry : 4:2:0
Scan type : Progressive
Bits/(Pixel*Frame) : 0.213
Stream size : 269 MiB (88%)
Writing library : XviD 1.2.1 (UTC 2008-12-04)

Audio
ID : 1
Format : AC-3
Format/Info : Audio Coding 3
Codec ID : 2000
Duration : 24mn 35s
Bit rate mode : Constant
Bit rate : 192 Kbps
Channel(s) : 2 channels
Channel positions : L R
Sampling rate : 48.0 KHz
Stream size : 33.8 MiB (11%)
Alignment : Aligned on interleaves
Interleave, duration : 42 ms (1.00 video frame)
Скриншоты:






   Похожие торренты   Торрент   Размер 
В этой теме нет новых непрочитанных сообщений. Супермен / Шазам! - Возвращение Черного Адама / DC Showcase: Superman / Shazam! The Return of Black Adam (2010) BDRemux | SkyeFilm, Kapets's Studios

5 | 3

4.29 ГБ

В этой теме нет новых непрочитанных сообщений. Супермен / Шазам! - Возвращение черного Адама / Superman / Shazam!: The Return of Black Adam (2010) HDTVRip

8 | 2

299.96 МБ

В этой теме нет новых непрочитанных сообщений. Витрина DC: Мираж / DC Showcase: The Spectre (2010) HDRip | L

10 | 5

125.29 МБ

В этой теме нет новых непрочитанных сообщений. Витрина DC: Джона Хекс / DC Showcase: Jonah Hex (2010) BDRip 1080p | L2

4 | 6

614.26 МБ

В этой теме нет новых непрочитанных сообщений. Про Адама / About Adam (2000) DVDRip

210 | 68

1.36 ГБ

В этой теме нет новых непрочитанных сообщений. Про Адама / About Adam (2000) DVDRip от MediaClub | КПК

3 | 0

420.32 МБ

В этой теме нет новых непрочитанных сообщений. Возвращение черного скакуна / The Black Stallion Returns (1983) DVDRip

9 | 2

1.36 ГБ




Вы не можете начинать темы
Вы не можете отвечать на сообщения
Вы не можете редактировать свои сообщения
Вы не можете удалять свои сообщения
Вы не можете добавлять вложения

Перейти:  
Для Мосгорсуда, Роскомнадзора и рекламодателей: mosgorsud-torrent[собачка]yandex.ru
 Вход
ppkBB3cker v.2 © 2008-2014 @ PPK
[ Time : 0.059s | 15 Queries | GZIP : Off ]

Торрент трекер RUTOR.IN, Не можете зайти на rutor.org? Какой новый адрес рутор? Какое зеркало рутор? Не работает rutor.org и зеркала? Тогда наш торрент специально для вас. Rutor.in неофициальное зеркало rutor. В случае если у Вас заблокирован rutor или вдруг Вы не можете на него зайти, то Вы без труда сможете скачать бесплатно и без рекламы последние новинки кино, игр, сериалов и прочего у нас, на Rutor.in. Не нужно использовать прокси, чтобы зайти на рутор, достаточно воспользоваться нашим ресурсом. Все новые фильмы, игры, сериалы, книги и музыка за 2013 и 2014 годы через торрент бесплатно. Скачивайте фильмы в хорошем качестве, игры для пк, xbox, playstation без регистрации. У нас вы найдете новые Зарубежные сериалы и Русские сериалы 2013, 2014, 2015 годов. Оставайтесь с нами, качайте любимые фильмы, игры, сериалы, книги и музыку.