img image001 image001 image001 image001 image001 image001 image001 image001 image001 image001 image001 image001 image001 image001 image001 image001

Planets Sun Sun Sun
Статистика раздачи
Автор: Снежана | Размер: 2.45 ГБ | Добавлен: 27 июл 2013
Раздают: 31    Качают: 9
Скачать торрент
Скачать торрент
Описание торрента

СообщениеДобавлено: 27 июл 2013 

[imgright]http://ecx.images-amazon.com/images/I/61jVdq5ILeL.jpg" />

Жанр: Анимационный, Приключения, Комедия, Семейный.
Год: 2010.
Студия: Pixar Animation Studios.
Страна: США.
Режиссер: Джон Лассетер /John Lasseter/, Роб Гиббс /Rob Gibbs/, Роджер Гулд /Roger Gould/.
В ролях: Кейт Фергюсон /Keith Ferguson/, Ларри Кейбл Гай /Larry The Cable Guy/, Джордж Карлин /George Carlin/.

Описание: Главный герой этих историй, друг гонщика Молнии МакКвин — грузовичок «Мэтр» из городка Радиатор-Спрингс. В своих рассказах он предстаёт перед зрителем в неповторимых образах лихого спасателя, дипломированного доктора, расскажет о том как он был звездой каскадерского авто-шоу, и победителем среди стритрейсеров на автогонках в Токио. Мэтр выдумывает нереальные истории, в которые то и дело втягивает своего товарища МакКвина. При этом Молнии далеко не всегда в историях Метра достаются удачные роли…

Примечание: В сборник вошли следующие мультфильмы:

1. Moon Mater;
2. Mater Private Eye;
3. Monster Truck Mater;
4. Heavy Metal Mater;
5. Rescue Squad Mater;
6. Mater the Greater;
7. El Materdor;
8. Unidentified Flying Mater;
9. Tokyo Mater

*********** Cars Toon: Mater's Tall Tales (2008) ***********

Release Date: 25.11.2010

Release Info:
File Name .....: Tachki.Baiki.Metra.2008.DUAL.BDRip.720p.h264.AC3.-HQ-ViDEO.mkv
Author ........: GYN

Runtime .......: 00:35:37 min
Video Format ..: MKV, H.264 codec
Video Bitrate .: 7 702 kbps
Bits per Pixel : 0.349 bit/pixel
Resolution ....: 1 280 x 720
Aspect Ratio ..: 16:9
Framerate .....: 23.976 fps

Audio First....: Russian AC3 Dolby Digital; 448.00 kbps; 5.1 Ch; 48 kHz
Audio Second...: English AC3 Dolby Digital; 448.00 kbps; 5.1 Ch; 48 kHz
Subtitle.......: Russian, Ukrainian.

File Size .....: 2.18 GB
Source.........: Blu-ray Disc

Complete name : Tachki.Baiki.Metra.2008.DUAL.BDRip.720p.h264.AC3.-HQ-ViDEO.mkv
Format : Matroska
File size : 2.18 GiB
Duration : 35mn 37s
Overall bit rate : 8 772 Kbps
Movie name : Cars Toon: Mater's Tall Tales [Season 1-2] (2008-2010)
Encoded date : UTC 2010-11-25 06:48:25
Writing application : mkvmerge v3.3.0 ('Language') built on Mar 24 2010 14:59:24
Writing library : libebml v0.8.0 + libmatroska v0.9.0

Video
ID : 1
Format : AVC
Format/Info : Advanced Video Codec
Format profile : High@L4.1
Format settings, CABAC : Yes
Format settings, ReFrames : 6 frames
Muxing mode : Container profile=Unknown@4.1
Codec ID : V_MPEG4/ISO/AVC
Duration : 35mn 35s
Bit rate : 7 702 Kbps
Width : 1 280 pixels
Height : 720 pixels
Display aspect ratio : 16:9
Frame rate : 23.976 fps
Resolution : 8 bits
Colorimetry : 4:2:0
Scan type : Progressive
Bits/(Pixel*Frame) : 0.349
Stream size : 1.91 GiB (88%)
Title : Encoded by GYN

Audio #1
ID : 2
Format : AC-3
Format/Info : Audio Coding 3
Codec ID : A_AC3
Duration : 35mn 37s
Bit rate mode : Constant
Bit rate : 448 Kbps
Channel(s) : 6 channels
Channel positions : Front: L C R, Surround: L R, LFE
Sampling rate : 48.0 KHz
Stream size : 114 MiB (5%)
Title : DUB
Language : Russian

Audio #2
ID : 3
Format : AC-3
Format/Info : Audio Coding 3
Codec ID : A_AC3
Duration : 35mn 37s
Bit rate mode : Constant
Bit rate : 448 Kbps
Channel(s) : 6 channels
Channel positions : Front: L C R, Surround: L R, LFE
Sampling rate : 48.0 KHz
Stream size : 114 MiB (5%)
Title : Original
Language : English

Text #1
ID : 4
Format : UTF-8
Codec ID : S_TEXT/UTF8
Codec ID/Info : UTF-8 Plain Text
Language : Russian

Text #2
ID : 5
Format : UTF-8
Codec ID : S_TEXT/UTF8
Codec ID/Info : UTF-8 Plain Text
Language : Ukrainian


Язык: Русский дублированный + Английская дорожка.

Субтитры: Русские, Украинские.

Скриншоты для оценки качества:




Релиз:


   Похожие торренты   Торрент   Размер 
В этой теме нет новых непрочитанных сообщений. Тачки 3 / Cars 3 (2017) BDRip 1080p от Ash61 | 3D-Video | halfOU | iTunes

0 | 0

9.06 ГБ

В этой теме нет новых непрочитанных сообщений. Тачки 3 / Cars 3 (2017) BDRip 1080p от Ash61 | 3D-Video | halfOU | iTunes

85 | 8

9.25 ГБ

В этой теме нет новых непрочитанных сообщений. Тачки 3 3D / Cars 3 3D (2017) Blu-Ray EUR 1080p | 3D-Video | Лицензия

13 | 7

32.15 ГБ

В этой теме нет новых непрочитанных сообщений. Тачки 3 / Cars 3 (2017) BDRemux 1080p | 3D-Video | Лицензия

17 | 6

26.17 ГБ

В этой теме нет новых непрочитанных сообщений. Тачки 3 / Cars 3 (2017) BDRemux 1080p от ExKinoRay | 3D-Video | iTunes

7 | 11

20.98 ГБ

В этой теме нет новых непрочитанных сообщений. Тачки 3 / Cars 3 (2017) BDRip 720p | Лицензия

45 | 4

6.48 ГБ

В этой теме нет новых непрочитанных сообщений. Тачки 2 / Cars 2 (2011) BDRip 720p от HELLYWOOD | Лицензия

443 | 65

5.06 ГБ




Вы не можете начинать темы
Вы не можете отвечать на сообщения
Вы не можете редактировать свои сообщения
Вы не можете удалять свои сообщения
Вы не можете добавлять вложения

Перейти:  
 Вход
ppkBB3cker v.2 © 2008-2014 @ PPK
[ Time : 0.029s | 15 Queries | GZIP : Off ]

cron