img image001 image001 image001 image001 image001 image001 image001 image001 image001 image001 image001 image001 image001 image001 image001

Planets Sun Sun Sun
Статистика раздачи
Автор: Снежана | Размер: 4.66 ГБ | Добавлен: 27 июл 2013
Раздают: 34    Качают: 12
Скачать торрент
Скачать торрент
Описание торрента

СообщениеДобавлено: 27 июл 2013 

История игрушек 2 / Toy Story 2 (1999) BDRip [720p]

Релиз от HQ-ViDEO



Жанр: Комедия, Приключения, Семейный, Мультфильм
Год: 1999
Студия: Pixar Animation Studios
Режиссер: Джон Лассетер /John Lasseter/, Эш Браннон /Ash Brannon/, Ли Анкрич /Lee Unkrich/

В ролях: Том Хэнкс /Tom Hanks/, Тим Аллен /Tim Allen/, Джоан Кьюсак /Joan Cusack/, Келси Грэммер /Kelsey Grammer/, Дон Риклз /Don Rickles/, Джим Варни /Jim Varney/, Уоллес Шоун /Wallace Shawn/, Джон Ратценбергер /John Ratzenberger/, Энни Поттс /Annie Potts/, Уэйн Найт /Wayne Knight/

Описание: Ковбой Вуди и другие игрушки мальчика по имени Энди продолжают жить, радуясь каждому дню. Но неожиданно все меняется, когда Вуди похищает коварный коллекционер. Оказывается, что Вуди — очень ценная игрушка из коллекции, за которую японский музей игрушек готов заплатить огромную сумму. В доме коллекционера он находит своих родственников. В это время игрушки во главе с Баззом Лайтером отправляются спасать Вуди.

Вуди узнает о своем знаменитом прошлом, Базз и другие игрушки проходят опасный и тернистый путь. Перед Вуди встает непростой вопрос — каково же его предназначение? Блистать в витрине музея или же вернуться к любимому хозяину?...

*********** Toy Story 2 (1999) ***********

Release Date: 02.12.2010

Release Info:
Author ........: GYN

Runtime .......: 01:32:55 min
Video Format ..: MKV, H.264 codec
Video Bitrate .: 5 697 kbps
Bits per Pixel : 0.258 bit/pixel
Resolution ....: 1 280 x 720
Aspect Ratio ..: 16:9
Framerate .....: 23.976 fps

Audio First....: Russian AC3 Dolby Digital; 448.00 kbps; 5.1 Ch; 48 kHz
Audio Second...: English AC3 Dolby Digital; 448.00 kbps; 5.1 Ch; 48 kHz
Subtitle.......: Russian, English.

File Size .....: 4.37 GB
Source.........: Blu-ray Disc




General
Complete name : Istoriya.Igrushek.II.1999.DUAL.BDRip.720p.h264.AC3 .-HQ-ViDEO.mkv
Format : Matroska
File size : 4.37 GiB
Duration : 1h 32mn
Overall bit rate : 6 726 Kbps
Movie name : Toy Story 2 (1999)
Encoded date : UTC 2010-12-02 10:39:06
Writing application : mkvmerge v3.3.0 ('Language') built on Mar 24 2010 14:59:24
Writing library : libebml v0.8.0 + libmatroska v0.9.0

Video
ID : 1
Format : AVC
Format/Info : Advanced Video Codec
Format profile : High@L4.1
Format settings, CABAC : Yes
Format settings, ReFrames : 6 frames
Muxing mode : Container profile=Unknown@4.1
Codec ID : V_MPEG4/ISO/AVC
Duration : 1h 32mn
Bit rate : 5 697 Kbps
Width : 1 280 pixels
Height : 720 pixels
Display aspect ratio : 16:9
Frame rate : 23.976 fps
Resolution : 8 bits
Colorimetry : 4:2:0
Scan type : Progressive
Bits/(Pixel*Frame) : 0.258
Stream size : 3.69 GiB (85%)
Title : Encoded by GYN

Audio #1
ID : 2
Format : AC-3
Format/Info : Audio Coding 3
Codec ID : A_AC3
Duration : 1h 32mn
Bit rate mode : Constant
Bit rate : 448 Kbps
Channel(s) : 6 channels
Channel positions : Front: L C R, Surround: L R, LFE
Sampling rate : 48.0 KHz
Stream size : 298 MiB (7%)
Title : DUB
Language : Russian

Audio #2
ID : 3
Format : AC-3
Format/Info : Audio Coding 3
Codec ID : A_AC3
Duration : 1h 32mn
Bit rate mode : Constant
Bit rate : 448 Kbps
Channel(s) : 6 channels
Channel positions : Front: L C R, Surround: L R, LFE
Sampling rate : 48.0 KHz
Stream size : 298 MiB (7%)
Title : Original
Language : English

Text #1
ID : 4
Format : UTF-8
Codec ID : S_TEXT/UTF8
Codec ID/Info : UTF-8 Plain Text
Language : Russian

Text #2
ID : 5
Format : UTF-8
Codec ID : S_TEXT/UTF8
Codec ID/Info : UTF-8 Plain Text
Language : English

Язык: Русский дублированный + Английская дорожка + Украинский дублированный (448/отдельно) .

Субтитры: Русские, Английские.



Релиз:
Автор рипа: GYN

ПРИЯТНОГО ПРОСМОТРА!



   Похожие торренты   Торрент   Размер 
В этой теме нет новых непрочитанных сообщений. История игрушек 2 / Toy Story 2 (1999) BDRip от HQ-ViDEO

1173 | 128

1.7 ГБ

В этой теме нет новых непрочитанных сообщений. История игрушек [Трилогия] / Toy Story [Trilogy] (1995; 1999; 2010) BDRip 1080p от Ash61 | 3D-Video | halfOU

16 | 0

23.53 ГБ

В этой теме нет новых непрочитанных сообщений. История игрушек / Toy Story (1995) BDRip 720p от HQ-ViDEO | D

328 | 18

4.37 ГБ

В этой теме нет новых непрочитанных сообщений. История игрушек: Большой побег / Toy Story 3 (2010) BDRip [720p] от HQ-ViDEO

21 | 12

4.65 ГБ

В этой теме нет новых непрочитанных сообщений. История Игрушек 2 / Toy Story 2 (1999) BDRip от RP4 CHG

3 | 2

700.9 МБ

В этой теме нет новых непрочитанных сообщений. История игрушек 2 / Toy Story 2 (1999) BDRip-AVC

76 | 4

744.4 МБ

В этой теме нет новых непрочитанных сообщений. История игрушек 2 / Toy Story 2 (1999) BDRip by VIDEODB

3 | 3

2.16 ГБ




Вы не можете начинать темы
Вы не можете отвечать на сообщения
Вы не можете редактировать свои сообщения
Вы не можете удалять свои сообщения
Вы не можете добавлять вложения

Перейти:  
Для Мосгорсуда, Роскомнадзора и рекламодателей: mosgorsud-torrent[собачка]yandex.ru
 Вход
ppkBB3cker v.2 © 2008-2014 @ PPK
[ Time : 0.035s | 15 Queries | GZIP : Off ]

Торрент трекер RUTOR.IN, Не можете зайти на rutor.org? Какой новый адрес рутор? Какое зеркало рутор? Не работает rutor.org и зеркала? Тогда наш торрент специально для вас. Rutor.in неофициальное зеркало rutor. В случае если у Вас заблокирован rutor или вдруг Вы не можете на него зайти, то Вы без труда сможете скачать бесплатно и без рекламы последние новинки кино, игр, сериалов и прочего у нас, на Rutor.in. Не нужно использовать прокси, чтобы зайти на рутор, достаточно воспользоваться нашим ресурсом. Все новые фильмы, игры, сериалы, книги и музыка за 2013 и 2014 годы через торрент бесплатно. Скачивайте фильмы в хорошем качестве, игры для пк, xbox, playstation без регистрации. У нас вы найдете новые Зарубежные сериалы и Русские сериалы 2013, 2014, 2015 годов. Оставайтесь с нами, качайте любимые фильмы, игры, сериалы, книги и музыку.
cron