img image001 image001 image001 image001 image001 image001 image001 image001 image001 image001 image001 image001 image001 image001 image001 image001

Planets Sun Sun Sun
Статистика раздачи
Автор: Снежана | Размер: 4.65 ГБ | Добавлен: 27 июл 2013
Раздают: 25    Качают: 13
Скачать торрент
Скачать торрент
Описание торрента

СообщениеДобавлено: 27 июл 2013 

История игрушек: Большой побег / Toy Story 3 (2010) BDRip [720p]

Релиз от HQ-ViDEO



Жанр: Комедия, Приключения, Семейный, Мультфильм
Год: 2010
Студия: Pixar Animation Studios
Режиссер: Ли Анкрич /Lee Unkrich/

В ролях: Том Хэнкс /Tom Hanks/, Тим Аллен /Tim Allen/, Джоан Кьюсак /Joan Cusack/, Нед Битти /Ned Beatty/, Дон Риклз /Don Rickles/, Майкл Китон /Michael Keaton/, Уоллес Шоун /Wallace Shawn/, Джон Ратценбергер /John Ratzenberger/, Эстелль Харрис /Estelle Harris/, Джон Моррис /John Morris/

Описание: Энди почти 18 лет, ему остаётся 3 дня до отправки в колледж, в то время как его игрушки, в том числе Вуди и Базз Лайтер, гадают о своём будущем.
Куда забросит их судьба? На чердак, на свалку или, может быть, в детский сад «Солнышко»?
События развиваются в самом неожиданном направлении, и приключения полюбившихся героев продолжаются!...

*********** Toy Story 3 (2010) ***********

Release Date: 02.12.2010

Release Info:
Author ........: GYN

Runtime .......: 01:43:03 min
Video Format ..: MKV, H.264 codec
Video Bitrate .: 5 116 kbps
Bits per Pixel : 0.232 bit/pixel
Resolution ....: 1 280 x 720
Aspect Ratio ..: 16:9
Framerate .....: 23.976 fps

Audio First....: Russian AC3 Dolby Digital; 384.00 kbps; 5.1 Ch; 48 kHz
Audio Second...: English AC3 Dolby Digital; 448.00 kbps; 5.1 Ch; 48 kHz
Subtitle.......: Russian, Russian (Forced), Ukrainian (Forced), English.

File Size .....: 4.37 GB
Source.........: Blu-ray Disc




General
Complete name : Istoriya.Igrushek.III.2010.DUAL.BDRip.720p.h264.AC 3.-HQ-ViDEO.mkv
Format : Matroska
File size : 4.37 GiB
Duration : 1h 43mn
Overall bit rate : 6 069 Kbps
Movie name : Toy Story 3 (2010)
Encoded date : UTC 2010-12-02 14:09:39
Writing application : mkvmerge v3.3.0 ('Language') built on Mar 24 2010 14:59:24
Writing library : libebml v0.8.0 + libmatroska v0.9.0

Video
ID : 1
Format : AVC
Format/Info : Advanced Video Codec
Format profile : High@L4.1
Format settings, CABAC : Yes
Format settings, ReFrames : 6 frames
Muxing mode : Container profile=Unknown@4.1
Codec ID : V_MPEG4/ISO/AVC
Duration : 1h 42mn
Bit rate : 5 116 Kbps
Width : 1 280 pixels
Height : 720 pixels
Display aspect ratio : 16:9
Frame rate : 23.976 fps
Resolution : 8 bits
Colorimetry : 4:2:0
Scan type : Progressive
Bits/(Pixel*Frame) : 0.232
Stream size : 3.68 GiB (84%)
Title : Encoded by GYN

Audio #1
ID : 2
Format : AC-3
Format/Info : Audio Coding 3
Codec ID : A_AC3
Duration : 1h 43mn
Bit rate mode : Constant
Bit rate : 384 Kbps
Channel(s) : 6 channels
Channel positions : Front: L C R, Surround: L R, LFE
Sampling rate : 48.0 KHz
Stream size : 283 MiB (6%)
Title : DUB
Language : Russian

Audio #2
ID : 3
Format : AC-3
Format/Info : Audio Coding 3
Codec ID : A_AC3
Duration : 1h 43mn
Bit rate mode : Constant
Bit rate : 448 Kbps
Channel(s) : 6 channels
Channel positions : Front: L C R, Surround: L R, LFE
Sampling rate : 48.0 KHz
Stream size : 330 MiB (7%)
Title : Original
Language : English

Text #1
ID : 4
Format : UTF-8
Codec ID : S_TEXT/UTF8
Codec ID/Info : UTF-8 Plain Text
Language : Russian

Text #2
ID : 5
Format : UTF-8
Codec ID : S_TEXT/UTF8
Codec ID/Info : UTF-8 Plain Text
Title : Forced
Language : Russian

Text #3
ID : 6
Format : UTF-8
Codec ID : S_TEXT/UTF8
Codec ID/Info : UTF-8 Plain Text
Language : English

Text #4
ID : 7
Format : UTF-8
Codec ID : S_TEXT/UTF8
Codec ID/Info : UTF-8 Plain Text
Title : Forced
Language : Ukrainian

Язык: Русский дублированный + Английская дорожка + Украинский дублированный (384/отдельно) .

Субтитры: Русские, Русские форсированные, Украинские форсированные, Английские.



Релиз:
Автор рипа: GYN

ПРИЯТНОГО ПРОСМОТРА!



   Похожие торренты   Торрент   Размер 
В этой теме нет новых непрочитанных сообщений. История игрушек: Большой побег / Toy Story 3: The Video Game (2010) PC | RePack от R.G. Механики

1678 | 95

1.98 ГБ

В этой теме нет новых непрочитанных сообщений. История игрушек: Большой побег / Toy Story 3 (2010) BDRip-AVC | iPhone | D

123 | 4

1.33 ГБ

В этой теме нет новых непрочитанных сообщений. История игрушек: Большой побег / Toy Story 3 (2010) BDRip-AVC от Leonardo and Scarabey | D

1379 | 49

1.46 ГБ

В этой теме нет новых непрочитанных сообщений. История игрушек: Большой побег / Toy Story 3 (2010) HDRip от Scarabey | D

284 | 18

744.41 МБ

В этой теме нет новых непрочитанных сообщений. История игрушек: Большой побег / Toy Story 3 (Ли Анкрич) [2010, мультфильм, фэнтези, комедия, приключения, семейный, BDRip] DUB / Walt Disney

118 | 2

1.45 ГБ

В этой теме нет новых непрочитанных сообщений. История игрушек / Toy Story (1995) BDRip 720p от HQ-ViDEO | D

328 | 18

4.37 ГБ

В этой теме нет новых непрочитанных сообщений. История игрушек [Трилогия] / Toy Story [Trilogy] (1995; 1999; 2010) BDRip 1080p от Ash61 | 3D-Video | halfOU

4 | 0

23.53 ГБ




Вы не можете начинать темы
Вы не можете отвечать на сообщения
Вы не можете редактировать свои сообщения
Вы не можете удалять свои сообщения
Вы не можете добавлять вложения

Перейти:  
cron
 Вход
ppkBB3cker v.2 © 2008-2014 @ PPK
[ Time : 0.027s | 19 Queries | GZIP : Off ]

cron