img image001 image001 image001 image001 image001 image001 image001 image001 image001 image001 image001 image001 image001 image001 image001

Planets Sun Sun Sun
Статистика раздачи
Автор: Снежана | Размер: 700.97 МБ | Добавлен: 27 июл 2013
Раздают: 15    Качают: 6
Скачать торрент
Скачать торрент
Описание торрента

СообщениеДобавлено: 27 июл 2013 

#77

Информация о фильме
Название: Сезон охоты 3
Оригинальное название: Open Season 3
Год выхода: 2010
Жанр: мультфильм
Режиссер: Коуди Камерон
В ролях: Кьяра Браво, Карли Скотт Коллинз, Шон Маллен, Мэттью Дж. Мунн, Стив Ширрипа, Дэна Снайдер, Мелисса Штурм, Мэттью В. Тейлор

О фильме:
Продолжение сумасшедших приключений медведя-гризли Буга и его верного друга, оленя Элиота. На этот раз Буг пускается на поиски личного счастья и попадает; в бродячий цирк, где знакомится с очаровательной русской медведицей.

Страна: США
Продолжительность: 1:14:36
Перевод: Русский (дубляж).

Файл
Контейнер: MP4
Кодек: x264
Качество: BDRip-AVC 720p
Видео: AVC at 1150 Кбит/сек VBR, 880x720@1280x720 (1.778) at 23.976 fps
Звук: AAC Dolby Pro Logic II, at 160 Кбит/сек ABR, 2 канала(ов), 48,0 КГц
Субтитры: отсутствуют










Общее
Полное имя : Сезон охоты 3 [Open Season 3] (2010) BDRip-AVC 720p.mp4
Формат : MPEG-4
Профиль формата : Base Media
Идентификатор кодека : isom
Размер файла : 701 Мбайт
Продолжительность : 1 ч. 14 м.
Общий поток : 1314 Кбит/сек
Дата кодирования : UTC 2011-01-05 15:21:53
Дата пометки : UTC 2011-01-05 15:21:53

Видео
Идентификатор : 1
Формат : AVC
Формат/Информация : Advanced Video Codec
Профиль формата : High@L5.1
Параметр CABAC формата : Да
Параметр ReFrames формата : 16 кадры
Идентификатор кодека : avc1
Идентификатор кодека/Информация : Advanced Video Coding
Продолжительность : 1 ч. 14 м.
Вид битрейта : Переменный
Битрейт : 1150 Кбит/сек
Максимальный битрейт : 8301 Кбит/сек
Ширина : 880 пикс.
Высота : 720 пикс.
Соотношение сторон : 16:9
Режим частоты кадров : Постоянный
Частота кадров : 23,976 кадр/сек
Цветовое пространство : YUV
Подвыборка цветности : 4:2:0
Битовая глубина : 8 бит
Тип развёртки : Прогрессивная
Бит/(Пиксели*Кадры) : 0.076
Размер потока : 613 Мбайт (88%)
Заголовок : freeisland.org
Библиотека кодирования : x264 core 112 r1834 a51816a
Настройки программы : cabac=1 / ref=16 / deblock=1:1:1 / analyse=0x3:0x133 / me=esa / subme=10 / psy=1 / psy_rd=1.00:0.00 / mixed_ref=1 / me_range=64 / chroma_me=1 / trellis=2 / 8x8dct=1 / cqm=0 / deadzone=21,11 / fast_pskip=1 / chroma_qp_offset=-2 / threads=12 / sliced_threads=0 / nr=0 / decimate=1 / interlaced=0 / constrained_intra=0 / bframes=11 / b_pyramid=2 / b_adapt=2 / b_bias=0 / direct=2 / weightb=1 / open_gop=0 / weightp=2 / keyint=250 / keyint_min=23 / scenecut=40 / intra_refresh=0 / rc=2pass / mbtree=0 / bitrate=1150 / ratetol=1.0 / qcomp=1.00 / qpmin=3 / qpmax=45 / qpstep=4 / cplxblur=20.0 / qblur=0.5 / ip_ratio=1.40 / pb_ratio=1.30 / aq=1:1.00
Дата кодирования : UTC 2011-01-04 23:40:55
Дата пометки : UTC 2011-01-05 15:22:08
Основные цвета : BT.709-5, BT.1361, IEC 61966-2-4, SMPTE RP177
Характеристики трансфера : BT.709-5, BT.1361
Коэффициенты матрицы : BT.709-5, BT.1361, IEC 61966-2-4 709, SMPTE RP177

Аудио
Идентификатор : 2
Формат : AAC
Формат/Информация : Advanced Audio Codec
Профиль формата : LC
Идентификатор кодека : 40
Продолжительность : 1 ч. 14 м.
Вид битрейта : Переменный
Битрейт : 160 Кбит/сек
Максимальный битрейт : 219 Кбит/сек
Канал(ы) : 2 канала(ов)
Расположение каналов : Front: L R
Частота : 48,0 КГц
Метод сжатия : С потерями
Размер потока : 85,3 Мбайт (12%)
Заголовок : freeisland.org
Язык : Russian
Дата кодирования : UTC 2011-01-05 15:22:07
Дата пометки : UTC 2011-01-05 15:22:08

Меню
00:00:00.000 : 01
00:05:06.389 : 02
00:08:07.654 : 03
00:10:57.156 : 04
00:17:48.067 : 05
00:20:53.002 : 06
00:23:23.736 : 07
00:27:21.014 : 08
00:34:31.861 : 09
00:40:38.436 : 10
00:45:48.663 : 11
00:49:44.857 : 12
00:54:03.866 : 13
00:58:03.313 : 14
01:03:22.799 : 15
01:07:24.457 : 16


Релиз от:



   Похожие торренты   Торрент   Размер 
В этой теме нет новых непрочитанных сообщений. Сезон охоты 3 / Open Season 3 (2010) BDRip-AVC 720p

61 | 6

3.47 ГБ

В этой теме нет новых непрочитанных сообщений. Сезон охоты 3 / Open Season 3 (2010) BDRip 720p от ExKinoRay

261 | 4

1.1 ГБ

В этой теме нет новых непрочитанных сообщений. Сезон охоты 3 / Open Season 3 (2010) BDRip-AVC | D

355 | 44

745.5 МБ

В этой теме нет новых непрочитанных сообщений. Сезон охоты 3 / Open Season 3 (2010) BDRip | D

250 | 23

743.39 МБ

В этой теме нет новых непрочитанных сообщений. Сезон охоты 3 / Open Season 3 (2010) BDRip от HQCLUB

90 | 7

1.45 ГБ

В этой теме нет новых непрочитанных сообщений. Сезон охоты 3 / Open Season 3 (2010) BDRip от HELLYWOOD

334 | 20

1.45 ГБ

В этой теме нет новых непрочитанных сообщений. Сезон охоты 3 / Open Season 3 (2010) BDRip от HQ-ViDEO

96 | 15

1.46 ГБ




Вы не можете начинать темы
Вы не можете отвечать на сообщения
Вы не можете редактировать свои сообщения
Вы не можете удалять свои сообщения
Вы не можете добавлять вложения

Перейти:  
Для Мосгорсуда, Роскомнадзора и рекламодателей: mosgorsud-torrent[собачка]yandex.ru
 Вход
ppkBB3cker v.2 © 2008-2014 @ PPK
[ Time : 0.061s | 15 Queries | GZIP : Off ]

Торрент трекер RUTOR.IN, Не можете зайти на rutor.org? Какой новый адрес рутор? Какое зеркало рутор? Не работает rutor.org и зеркала? Тогда наш торрент специально для вас. Rutor.in неофициальное зеркало rutor. В случае если у Вас заблокирован rutor или вдруг Вы не можете на него зайти, то Вы без труда сможете скачать бесплатно и без рекламы последние новинки кино, игр, сериалов и прочего у нас, на Rutor.in. Не нужно использовать прокси, чтобы зайти на рутор, достаточно воспользоваться нашим ресурсом. Все новые фильмы, игры, сериалы, книги и музыка за 2013 и 2014 годы через торрент бесплатно. Скачивайте фильмы в хорошем качестве, игры для пк, xbox, playstation без регистрации. У нас вы найдете новые Зарубежные сериалы и Русские сериалы 2013, 2014, 2015 годов. Оставайтесь с нами, качайте любимые фильмы, игры, сериалы, книги и музыку.