img image001 image001 image001 image001 image001 image001 image001 image001 image001 image001 image001 image001 image001 image001 image001

Planets Sun Sun Sun
Статистика раздачи
Автор: Снежана | Размер: 700.36 МБ | Добавлен: 27 июл 2013
Раздают: 0    Качают: 3
Скачать торрент
Скачать торрент
Описание торрента

СообщениеДобавлено: 27 июл 2013 

#77

Информация о фильме
Название: Союз зверей
Оригинальное название: Die Konferenz der Tiere
Год выхода: 2010
Жанр: мультфильм, семейный.
Режиссер: Райнхард Клоосс
В ролях: Ральф Шмитц, Томас Фритш, Кристоф Мария Хербст, Бастиан Пастевка, Оливер Калкофе, Питер Грогер, Ули Кром, Марго Ротвейлер, Фрэнк Шафф, Тило Шмитц.

О фильме:
Команда веселых зверей нашла зеленый оазис посреди засушливой африканской пустыни, чтобы там поселиться. Но их жизнь оказалась под угрозой — река Окаванго стала быстро пересыхать. Друзья выясняют, что в этом виноваты люди, которые построили дамбу. Звери, — такие разные, — от льва до трусливого суслика, — объединяются в союз, чтобы бросить вызов людям и спасти долину! Смешная ватага разношерстных, винторогих и парнокопытных устроит развеселую жизнь людям и наведет свой «порядок» на дамбе!


Официальный сайт

Страна: Германия
Студия: Ambient Entertainment GmbH
Продолжительность: 01:33:05
Перевод: Дублированное (лицензия)
Оригинальная разбивка на главы: сохранена

Файл
Контейнер: MP4
Кодек: x264
Качество: BDRip-AVC 720p
Видео: AVC at 910 Кбит/сек VBR, 880 x 550 @ 1280x550 (2.327) at 23.976 fps
Звук: AAC Dolby Pro Logic II, at 140 Кбит/сек ABR, 2 канала(ов), 48,0 КГц



Общее
Полное имя : Союз зверей [Die Konferenz der Tiere] (2010) BDRip-AVC 720p.mp4
Формат : MPEG-4
Профиль формата : Base Media
Идентификатор кодека : isom
Размер файла : 700 Мбайт
Продолжительность : 1 ч. 33 м.
Общий поток : 1052 Кбит/сек
Дата кодирования : UTC 2011-01-08 20:22:01
Дата пометки : UTC 2011-01-08 20:22:01

Видео
Идентификатор : 1
Формат : AVC
Формат/Информация : Advanced Video Codec
Профиль формата : High@L5.1
Параметр CABAC формата : Да
Параметр ReFrames формата : 16 кадры
Идентификатор кодека : avc1
Идентификатор кодека/Информация : Advanced Video Coding
Продолжительность : 1 ч. 33 м.
Вид битрейта : Переменный
Битрейт : 910 Кбит/сек
Максимальный битрейт : 10,3 Мбит/сек
Ширина : 880 пикс.
Высота : 550 пикс.
Соотношение сторон : 2,35:1
Режим частоты кадров : Постоянный
Частота кадров : 23,976 кадр/сек
Цветовое пространство : YUV
Подвыборка цветности : 4:2:0
Битовая глубина : 8 бит
Тип развёртки : Прогрессивная
Бит/(Пиксели*Кадры) : 0.078
Размер потока : 605 Мбайт (86%)
Заголовок : freeisland.org
Библиотека кодирования : x264 core 112 r1834 a51816a
Настройки программы : cabac=1 / ref=16 / deblock=1:1:1 / analyse=0x3:0x133 / me=umh / subme=10 / psy=1 / psy_rd=1.00:0.00 / mixed_ref=1 / me_range=64 / chroma_me=1 / trellis=2 / 8x8dct=1 / cqm=0 / deadzone=21,11 / fast_pskip=1 / chroma_qp_offset=-2 / threads=12 / sliced_threads=0 / nr=0 / decimate=1 / interlaced=0 / constrained_intra=0 / bframes=16 / b_pyramid=2 / b_adapt=2 / b_bias=0 / direct=2 / weightb=1 / open_gop=0 / weightp=2 / keyint=250 / keyint_min=23 / scenecut=40 / intra_refresh=0 / rc=2pass / mbtree=0 / bitrate=910 / ratetol=1.0 / qcomp=1.00 / qpmin=3 / qpmax=45 / qpstep=4 / cplxblur=20.0 / qblur=0.5 / ip_ratio=1.40 / pb_ratio=1.30 / aq=1:1.00 / zones=128095,133913,q=40
Дата кодирования : UTC 2011-01-08 16:22:52
Дата пометки : UTC 2011-01-08 20:22:05
Основные цвета : BT.709-5, BT.1361, IEC 61966-2-4, SMPTE RP177
Характеристики трансфера : BT.709-5, BT.1361
Коэффициенты матрицы : BT.709-5, BT.1361, IEC 61966-2-4 709, SMPTE RP177

Аудио
Идентификатор : 2
Формат : AAC
Формат/Информация : Advanced Audio Codec
Профиль формата : LC
Идентификатор кодека : 40
Продолжительность : 1 ч. 33 м.
Вид битрейта : Переменный
Битрейт : 140 Кбит/сек
Максимальный битрейт : 239 Кбит/сек
Канал(ы) : 2 канала(ов)
Расположение каналов : Front: L R
Частота : 48,0 КГц
Метод сжатия : С потерями
Размер потока : 93,2 Мбайт (13%)
Заголовок : freeisland.org
Язык : Russian
Дата кодирования : UTC 2011-01-08 20:22:04
Дата пометки : UTC 2011-01-08 20:22:05

Меню
00:00:00.000 : 01
00:07:14.684 : 02
00:15:02.943 : 03
00:23:28.740 : 04
00:32:09.052 : 05
00:43:06.041 : 06
00:49:47.943 : 07
00:57:39.831 : 08
01:06:19.892 : 09
01:12:55.621 : 10
01:18:23.865 : 11
01:26:58.046 : 12









Релиз от:

Были всзяты два скрина с этой раздачи, кропнуты (1024х440), и масштабированы до моих размеров.

Сравнение смотрим здесь: http://screenshotcomparison.com/comparison/18460/

Так что качество данного рипа абсолютно не уступает полноценному, лицензионному DVD5, а в некоторых местах даже превосходит. И при этом разница в размере составляет 3.55 GB против 0.7 GB.

Надеюсь скептиков это убедило...



   Похожие торренты   Торрент   Размер 
В этой теме нет новых непрочитанных сообщений. Союз зверей / Animals United / Die Konferenz der Tiere (2010) BDRip 720p PROPER от FireBit

27 | 3

3.29 ГБ

В этой теме нет новых непрочитанных сообщений. Союз зверей / Animals United / Die Konferenz der Tiere (2010) BDRip 720p | 3D-video / Анаглиф

1 | 3

6.81 ГБ

В этой теме нет новых непрочитанных сообщений. Союз зверей / Animals United / Die Konferenz der Tiere (2010) BDRip-AVC от R.G. AVI AVC

40 | 7

1.43 ГБ

В этой теме нет новых непрочитанных сообщений. Союз зверей / Animals United / Die Konferenz der Tiere (2010) BDRip от alldown | КПК

65 | 2

418.27 МБ

В этой теме нет новых непрочитанных сообщений. Союз зверей / Animals United / Die Konferenz der Tiere (2010) BDRip от HQ-ViDEO

24 | 6

1.46 ГБ

В этой теме нет новых непрочитанных сообщений. Союз зверей / Animals United / Die Konferenz der Tiere (2010) BDRip-AVC от DHT-Movies

3 | 3

2.24 ГБ

В этой теме нет новых непрочитанных сообщений. Союз зверей / Konferenz der Tiere / Animals United (2010) BDRip от HQCLUB

20 | 7

1.45 ГБ




Вы не можете начинать темы
Вы не можете отвечать на сообщения
Вы не можете редактировать свои сообщения
Вы не можете удалять свои сообщения
Вы не можете добавлять вложения

Перейти:  
Для Мосгорсуда, Роскомнадзора и рекламодателей: mosgorsud-torrent[собачка]yandex.ru
 Вход
ppkBB3cker v.2 © 2008-2014 @ PPK
[ Time : 0.025s | 16 Queries | GZIP : Off ]

Торрент трекер RUTOR.IN, Не можете зайти на rutor.org? Какой новый адрес рутор? Какое зеркало рутор? Не работает rutor.org и зеркала? Тогда наш торрент специально для вас. Rutor.in неофициальное зеркало rutor. В случае если у Вас заблокирован rutor или вдруг Вы не можете на него зайти, то Вы без труда сможете скачать бесплатно и без рекламы последние новинки кино, игр, сериалов и прочего у нас, на Rutor.in. Не нужно использовать прокси, чтобы зайти на рутор, достаточно воспользоваться нашим ресурсом. Все новые фильмы, игры, сериалы, книги и музыка за 2013 и 2014 годы через торрент бесплатно. Скачивайте фильмы в хорошем качестве, игры для пк, xbox, playstation без регистрации. У нас вы найдете новые Зарубежные сериалы и Русские сериалы 2013, 2014, 2015 годов. Оставайтесь с нами, качайте любимые фильмы, игры, сериалы, книги и музыку.