img image001 image001 image001 image001 image001 image001 image001 image001 image001 image001 image001 image001 image001 image001 image001

Planets Sun Sun Sun
Статистика раздачи
Автор: Снежана | Размер: 1.72 ГБ | Добавлен: 27 июл 2013
Раздают: 25    Качают: 7
Скачать торрент
Скачать торрент
Описание торрента

СообщениеДобавлено: 27 июл 2013 

#77

Информация о фильме
Название: Шрек: Хэллоуин
Оригинальное название: Scared Shrekless
Год выхода: 2010
Жанр: Мультфильм, короткометражка, комедия, приключения, семейный
Режиссер: Гарри Трусдейл, Раман Хуи
В ролях: Майк Майерс, Антонио Бандерас, Кристен Шааль, Дин Эдвардс, Коуди Камерон, Кристофер Найтс, Конрад Вернон, Арон Уорнер, Пэтти Корнелл, Сьюзэн Фитцер

О фильме:
Шрек с друзьями решили устроить конкурс на самую страшную Хэллоуинскую историю. Но прежде чем выяснится кто же победил, им придется всю ночь пробыть в замке усопшего лорда Фаркуада.



Страна: США
Студия: DreamWorks Animation / NBC
Продолжительность: 00:20:59
Перевод: Дублированный + Профессиональный (многоголосый закадровый) VO-production, VSTeam & Filiza + Оригинал (Английский)

Файл
Кодек: x264
Качество: HDTV 1080p
Видео: 1920х1080 (16:9), 10768 Kbps, 23,976 fps, 0.217 bit/pixel
Звук 1#: Русский дублированный AC3 Dolby Digital; 48 kHz, 2 ch, 192 kbps
Звук 2#: Русский многоголосый AC3 Dolby Digital; 48 kHz, 6 ch, 384 kbps
Звук 3#: Английский AC3 Dolby Digital; 48 kHz, 6 ch, 384 kbps
Субтитры: Нет

Общее
Уникальный идентификатор : 248880867173702565022039120283680689232 (0xBB3CB622BBC0015D90E09BD49404CC50)
Полное имя : F:Shrek.Hellouin.2010.x264.HDTV.1080p.mkv
Формат : Matroska
Размер файла : 1,72 Гбайт
Продолжительность : 21 м.
Общий поток : 11,7 Мбит/сек
Название фильма : Shrekkato Da Morire (Scared Shrekless - 2010)
Дата кодирования : UTC 2011-01-15 20:44:23
Программа кодирования : mkvmerge v4.0.0 ('The Stars were mine') сборка от Jun 6 2010 16:18:42
Библиотека кодирования : libebml v1.0.0 + libmatroska v1.0.0

Видео
Идентификатор : 1
Формат : AVC
Формат/Информация : Advanced Video Codec
Профиль формата : High@L4.1
Параметр CABAC формата : Да
Параметр ReFrames формата : 4 кадры
Идентификатор кодека : V_MPEG4/ISO/AVC
Продолжительность : 21 м.
Битрейт : 10,8 Мбит/сек
Ширина : 1920 пикс.
Высота : 1080 пикс.
Соотношение сторон : 16:9
Частота кадров : 23,976 кадр/сек
Цветовое пространство : YUV
Подвыборка цветности : 4:2:0
Битовая глубина : 8 бит
Тип развёртки : Прогрессивная
Бит/(Пиксели*Кадры) : 0.217
Размер потока : 1,54 Гбайт (90%)
Библиотека кодирования : x264 core 94 r1564kMod a927654
Настройки программы : cabac=1 / ref=5 / deblock=1:0:0 / analyse=0x3:0x133 / me=umh / subme=7 / psy=1 / psy_rd=1.00:0.00 / mixed_ref=1 / me_range=16 / chroma_me=1 / trellis=1 / 8x8dct=1 / cqm=0 / deadzone=21,11 / fast_pskip=1 / chroma_qp_offset=-2 / threads=12 / sliced_threads=1 / slices=12 / nr=0 / decimate=1 / interlaced=0 / constrained_intra=0 / bframes=3 / b_pyramid=1 / b_adapt=1 / b_bias=0 / direct=1 / wpredb=1 / wpredp=2 / keyint=250 / keyint_min=25 / scenecut=40 / intra_refresh=0 / rc=2pass / mbtree=0 / bitrate=10768 / ratetol=1.0 / qcomp=0.60 / qpmin=10 / qpmax=51 / qpstep=4 / cplxblur=20.0 / qblur=0.5 / ip_ratio=1.40 / pb_ratio=1.30 / aq=1:1.00
Язык : English
Основные цвета : BT.709-5, BT.1361, IEC 61966-2-4, SMPTE RP177
Характеристики трансфера : BT.709-5, BT.1361
Коэффициенты матрицы : BT.709-5, BT.1361, IEC 61966-2-4 709, SMPTE RP177

Аудио #1
Идентификатор : 2
Формат : AC-3
Формат/Информация : Audio Coding 3
Расширение режима : CM (complete main)
Идентификатор кодека : A_AC3
Продолжительность : 21 м.
Вид битрейта : Постоянный
Битрейт : 192 Кбит/сек
Канал(ы) : 2 канала(ов)
Расположение каналов : Front: L R
Частота : 48,0 КГц
Битовая глубина : 16 бит
Метод сжатия : С потерями
Размер потока : 28,9 Мбайт (2%)
Заголовок : Dub
Язык : Russian

Аудио #2
Идентификатор : 3
Формат : AC-3
Формат/Информация : Audio Coding 3
Расширение режима : CM (complete main)
Идентификатор кодека : A_AC3
Продолжительность : 21 м.
Вид битрейта : Постоянный
Битрейт : 384 Кбит/сек
Канал(ы) : 6 канала(ов)
Расположение каналов : Front: L C R, Side: L R, LFE
Частота : 48,0 КГц
Битовая глубина : 16 бит
Метод сжатия : С потерями
Размер потока : 57,8 Мбайт (3%)
Заголовок : VO-production, VSTeam & Filiza
Язык : Russian

Аудио #3
Идентификатор : 4
Формат : AC-3
Формат/Информация : Audio Coding 3
Расширение режима : CM (complete main)
Идентификатор кодека : A_AC3
Продолжительность : 21 м.
Вид битрейта : Постоянный
Битрейт : 384 Кбит/сек
Канал(ы) : 6 канала(ов)
Расположение каналов : Front: L C R, Side: L R, LFE
Частота : 48,0 КГц
Битовая глубина : 16 бит
Метод сжатия : С потерями
Размер потока : 57,8 Мбайт (3%)
Заголовок : Original
Язык : English

Доп. информация:
Запись звука с ТВ - Diablo
На видео присутствует логотип телеканала NBC, периодически всплывает рекламная бегущая строка.
Видеоряд короче на 4 секунды.
Дублированная дорожка на narod.ru






Приятного просмотра!



   Похожие торренты   Торрент   Размер 
В этой теме нет новых непрочитанных сообщений. Шрек: Хэллоуин / Scared Shrekless (2010) HDTVRip

30 | 2

300.49 МБ

В этой теме нет новых непрочитанных сообщений. Шрек: Хэллоуин / Scared Shrekless (2010) HDTVRip от HQ-ViDEO

74 | 10

545.63 МБ

В этой теме нет новых непрочитанных сообщений. Шрек: Хэллоуин / Scared Shrekless (2010) BDRip 720 от SuperMin

76 | 30

746.03 МБ

В этой теме нет новых непрочитанных сообщений. Шрек: Хэллоуин / Scared Shrekless (2010) HDTVRip от KINOREAKTOR

14 | 4

361.71 МБ

В этой теме нет новых непрочитанных сообщений. Шрек: Хэллоуин / Scared Shrekless (2010) HDTVRip-AVC от KINOREAKTOR

18 | 3

462.56 МБ

В этой теме нет новых непрочитанных сообщений. Шрек: Хэллоуин / Scared Shrekless (2010) BDRip от Deadmauvlad | D, L1, P | Лицензия

174 | 18

747.76 МБ

В этой теме нет новых непрочитанных сообщений. Шрек навсегда / Shrek Forever After (2010) BDRip 1080p

57 | 12

4.66 ГБ




Вы не можете начинать темы
Вы не можете отвечать на сообщения
Вы не можете редактировать свои сообщения
Вы не можете удалять свои сообщения
Вы не можете добавлять вложения

Перейти:  
Для Мосгорсуда, Роскомнадзора и рекламодателей: mosgorsud-torrent[собачка]yandex.ru
 Вход
ppkBB3cker v.2 © 2008-2014 @ PPK
[ Time : 0.061s | 17 Queries | GZIP : Off ]

Торрент трекер RUTOR.IN, Не можете зайти на rutor.org? Какой новый адрес рутор? Какое зеркало рутор? Не работает rutor.org и зеркала? Тогда наш торрент специально для вас. Rutor.in неофициальное зеркало rutor. В случае если у Вас заблокирован rutor или вдруг Вы не можете на него зайти, то Вы без труда сможете скачать бесплатно и без рекламы последние новинки кино, игр, сериалов и прочего у нас, на Rutor.in. Не нужно использовать прокси, чтобы зайти на рутор, достаточно воспользоваться нашим ресурсом. Все новые фильмы, игры, сериалы, книги и музыка за 2013 и 2014 годы через торрент бесплатно. Скачивайте фильмы в хорошем качестве, игры для пк, xbox, playstation без регистрации. У нас вы найдете новые Зарубежные сериалы и Русские сериалы 2013, 2014, 2015 годов. Оставайтесь с нами, качайте любимые фильмы, игры, сериалы, книги и музыку.
cron