img image001 image001 image001 image001 image001 image001 image001 image001 image001 image001 image001 image001 image001 image001 image001

Planets Sun Sun Sun
Статистика раздачи
Автор: Снежана | Размер: 2.17 ГБ | Добавлен: 27 июл 2013
Раздают: 22    Качают: 7
Скачать торрент
Скачать торрент
Описание торрента

СообщениеДобавлено: 27 июл 2013 

#77

Информация о фильме
Название: Три богатыря и Шамаханская царица
Год выхода: 2010
Жанр: мультфильм, комедия, приключения, семейный
Режиссер: Сергей Глезин
В ролях: Валерий Соловьев, Анна Геллер, Олег Куликович, Лия Медведева,Сергей Маковецкий, Константин Бронзит,Дмитрий Быковский, Дмитрий Высоцкий, Мария Цветкова, Игорь Шибанов и др.

О фильме:
Легендарная Шамаханская царица, которая сводила с ума многих царей и простых смертных, положила свой глаз и на Киевского князя. Тот заболел любовью странной по ней. Но чтобы доставить в целости и сохранности эту чудо-богиню в Киев-Град, срочно из отпуска вызывают всех троих, уже знакомых нам, богатырей: Алёшу Поповича, Добрыню Никитича и Илью Муромца. Теперь троица должна решить, как быть дальше? Вроде бы и слухи о царице ходят нелестные, и князя жаль.

Страна: Россия, Студия "Мельница"
Продолжительность: 01:16:32
Перевод: Оригинал [лицензия]

Файл
Кодек: Н264
Качество: BDRip Исходник :Blu-ray 1080p AVC LPCM 5.1
Видео: 1280x720 ,4065 Кбит/сек,24 кадр/сек,0.165
Звук: АС-3,448 Кбит/сек,6 канала(ов)
Субтитры: нет

Семпл
Полное имя : D:торрентBogatyri.2010.h264.BDRip.720p.mkv
Формат : Matroska
Размер файла : 2,17 Гбайт
Продолжительность : 1 ч. 16 м.
Общий поток : 4065 Кбит/сек
Дата кодирования : UTC 2011-01-28 01:48:39
Программа кодирования : mkvmerge v4.4.0 ('Die Wiederkehr') built on Oct 31 2010 21:52:48
Библиотека кодирования : libebml v1.0.0 + libmatroska v1.0.0

Видео
Идентификатор : 1
Формат : AVC
Формат/Информация : Advanced Video Codec
Профиль формата : High@L4.1
Параметр CABAC формата : Да
Параметр ReFrames формата : 16 кадры
Идентификатор кодека : V_MPEG4/ISO/AVC
Продолжительность : 1 ч. 16 м.
Битрейт : 3640 Кбит/сек
Ширина : 1280 пикс.
Высота : 720 пикс.
Соотношение сторон : 16:9
Частота кадров : 24,000 кадр/сек
Цветовое пространство : YUV
Подвыборка цветности : 4:2:0
Битовая глубина : 8 бит
Тип развёртки : Прогрессивная
Бит/(Пиксели*Кадры) : 0.165
Размер потока : 1,89 Гбайт (87%)
Библиотека кодирования : x264 core 112 r1867 22bfd31
Настройки программы : cabac=1 / ref=16 / deblock=1:1:1 / analyse=0x3:0x113 / me=umh / subme=7 / psy=1 / psy_rd=0.40:0.00 / mixed_ref=1 / me_range=32 / chroma_me=1 / trellis=1 / 8x8dct=1 / cqm=0 / deadzone=21,11 / fast_pskip=1 / chroma_qp_offset=-2 / threads=3 / sliced_threads=0 / nr=0 / decimate=1 / interlaced=0 / constrained_intra=0 / bframes=8 / b_pyramid=2 / b_adapt=1 / b_bias=0 / direct=3 / weightb=1 / open_gop=0 / weightp=2 / keyint=250 / keyint_min=24 / scenecut=40 / intra_refresh=0 / rc_lookahead=50 / rc=2pass / mbtree=1 / bitrate=3640 / ratetol=1.0 / qcomp=0.60 / qpmin=0 / qpmax=51 / qpstep=4 / cplxblur=20.0 / qblur=0.5 / ip_ratio=1.40 / aq=1:0.60
Язык : English

Аудио
Идентификатор : 2
Формат : AC-3
Формат/Информация : Audio Coding 3
Расширение режима : CM (complete main)
Идентификатор кодека : A_AC3
Продолжительность : 1 ч. 16 м.
Вид битрейта : Постоянный
Битрейт : 448 Кбит/сек
Канал(ы) : 6 канала(ов)
Расположение каналов : Front: L C R, Side: L R, LFE
Частота : 48,0 КГц
Битовая глубина : 16 бит
Метод сжатия : С потерями
Размер потока : 245 Мбайт (11%)
Язык : Russian

Меню
00:00:00.000 : en:00:00:00.000
00:15:14.000 : en:00:15:14.000
00:26:08.542 : en:00:26:08.542
00:40:19.667 : en:00:40:19.667
00:53:56.833 : en:00:53:56.833
01:06:09.500 : en:01:06:09.500



Релиз от:



   Похожие торренты   Торрент   Размер 
В этой теме нет новых непрочитанных сообщений. Три богатыря и Шамаханская царица (2010) BDRip-AVC 1080p от FREEISLAND

9 | 6

4.36 ГБ

В этой теме нет новых непрочитанных сообщений. Три богатыря и Шамаханская царица (2010) BDRip 720p

10 | 7

3.5 ГБ

В этой теме нет новых непрочитанных сообщений. Три богатыря и Шамаханская царица (2010) BDRip-AVC 720p от potroks

52 | 7

1.47 ГБ

В этой теме нет новых непрочитанных сообщений. Три богатыря и Шамаханская царица (2010) BDRip 720p от Leonardo and Scarabey | iPad

418 | 26

652.72 МБ

В этой теме нет новых непрочитанных сообщений. Три богатыря и Шамаханская царица (2010) BDRip 1080p

85 | 11

4.36 ГБ

В этой теме нет новых непрочитанных сообщений. Три богатыря и Шамаханская царица (2010) BDRip-AVC | iPad

79 | 5

851.95 МБ

В этой теме нет новых непрочитанных сообщений. Три богатыря и Шамаханская царица (2010) BDRip от alldown | КПК

13 | 5

344.98 МБ




Вы не можете начинать темы
Вы не можете отвечать на сообщения
Вы не можете редактировать свои сообщения
Вы не можете удалять свои сообщения
Вы не можете добавлять вложения

Перейти:  
Для Мосгорсуда, Роскомнадзора и рекламодателей: mosgorsud-torrent[собачка]yandex.ru
 Вход
ppkBB3cker v.2 © 2008-2014 @ PPK
[ Time : 0.061s | 14 Queries | GZIP : On ]

Торрент трекер RUTOR.IN, Не можете зайти на rutor.org? Какой новый адрес рутор? Какое зеркало рутор? Не работает rutor.org и зеркала? Тогда наш торрент специально для вас. Rutor.in неофициальное зеркало rutor. В случае если у Вас заблокирован rutor или вдруг Вы не можете на него зайти, то Вы без труда сможете скачать бесплатно и без рекламы последние новинки кино, игр, сериалов и прочего у нас, на Rutor.in. Не нужно использовать прокси, чтобы зайти на рутор, достаточно воспользоваться нашим ресурсом. Все новые фильмы, игры, сериалы, книги и музыка за 2013 и 2014 годы через торрент бесплатно. Скачивайте фильмы в хорошем качестве, игры для пк, xbox, playstation без регистрации. У нас вы найдете новые Зарубежные сериалы и Русские сериалы 2013, 2014, 2015 годов. Оставайтесь с нами, качайте любимые фильмы, игры, сериалы, книги и музыку.