img image001 image001 image001 image001 image001 image001 image001 image001 image001 image001 image001 image001 image001 image001 image001

Planets Sun Sun Sun
Статистика раздачи
Автор: Снежана | Размер: 2.89 ГБ | Добавлен: 27 июл 2013
Раздают: 17    Качают: 6
Скачать торрент
Скачать торрент
Описание торрента

СообщениеДобавлено: 27 июл 2013 

Коралина в Стране Кошмаров / Coraline (2009) BDRip-AVC
от DHT-Movies

««Бойтесь своих желаний»»

Год выхода: 2009
Страна: (CША)
Жанр: Фэнтези, драма, приключения, семейный, мультфильм
Продолжительность: 01:40:36
Перевод: Дубляж(Профессиональный) + Оригинал
Отдельно на Narod:
Комментарии (Английский)
Украинский (Дубляж)



Режиссер: Генри Селик

Бюджет: $60 000 000
Сборы в США: $75 286 229
Сборы в России: $1 736 181
Сборы в мире: + $49 310 169 = $124 596 398

В ролях: Дакота Фаннинг, Тери Хэтчер, Дженнифер Сoндерс, Доун Френч, Кит Дэвид, Джон Гудман, Роберт Бэйли мл., Йен МакШейн

О фильме:
Коралина, маленькая девочка попадает в другой мир, скрытый за секретной дверцей. Этот мир —
ее альтернативная жизнь, которая не перестает ее радовать, все здесь хорошо, но до поры до времени. Однажды,
она понимает что ее настоящим родителям за ее проделки угрожает смертельная опасность. Коралине придется найти
выход из мира наполненного призраками в реальную жизнь…

Качество: BDRip-AVC (Source: HDTracker / BD-Remux)
Формат: MKV
Видео кодек: H.264
Видео: AVC; 1280x694 (16:9); ~3220 Kbps; 23.976 fps; x264 (High@L4.1); 0.151 bit/pixel
Аудио (Русский): 48 kHz, AC3 Dolby Digital, 6 channels, 448 Kbps | (Дубляж)
Аудио (Английский): 48 kHz, AC3 Dolby Digital, 6 channels, 448 Kbps | (Оригинал)
Аудио (Английский): 48 kHz, AC3 Dolby Digital, 2 channels, 192 Kbps | (Комментарии, отдельно)
Аудио (Украинский): 48 kHz, AC3 Dolby Digital, 2 channels, 384 Kbps | (Дубляж, отдельно)
Субтитры: Russian (Внешние).srt

Релиз группы:
Автор рипа: by Ackles
Format : Matroska
File size : 2.89 GiB
Duration : 1h 40mn
Overall bit rate : 4 114 Kbps
Encoded date : UTC 2011-01-31 12:50:43
Writing application : mkvmerge v4.4.0 ('Die Wiederkehr') сборка от Jan 3 2011 21:40:45
Writing library : libebml v1.0.0 + libmatroska v1.0.0

Video
ID : 1
Format : AVC
Format/Info : Advanced Video Codec
Format profile : High@L4.1
Format settings, CABAC : Yes
Format settings, ReFrames : 8 frames
Muxing mode : Container profile=Unknown@4.1
Codec ID : V_MPEG4/ISO/AVC
Duration : 1h 40mn
Bit rate : 3 220 Kbps
Width : 1 280 pixels
Height : 694 pixels
Display aspect ratio : 16:9
Frame rate : 23.976 fps
Color space : YUV
Chroma subsampling : 4:2:0
Bit depth : 8 bits
Scan type : Progressive
Bits/(Pixel*Frame) : 0.151
Stream size : 2.20 GiB (76%)
Writing library : x264 core 112 r1867 22bfd31
Encoding settings : cabac=1 / ref=8 / deblock=1:0:0 / analyse=0x3:0x113 / me=umh / subme=8 / psy=1 / psy_rd=1.00:0.00 / mixed_ref=1 / me_range=18 / chroma_me=1 / trellis=1 / 8x8dct=1 / cqm=0 / deadzone=21,11 / fast_pskip=1 / chroma_qp_offset=-2 / threads=3 / sliced_threads=0 / nr=0 / decimate=1 / interlaced=0 / constrained_intra=0 / bframes=6 / b_pyramid=2 / b_adapt=2 / b_bias=0 / direct=1 / weightb=1 / open_gop=0 / weightp=2 / keyint=250 / keyint_min=23 / scenecut=40 / intra_refresh=0 / rc_lookahead=40 / rc=2pass / mbtree=1 / bitrate=3220 / ratetol=1.0 / qcomp=0.60 / qpmin=10 / qpmax=51 / qpstep=4 / cplxblur=20.0 / qblur=0.5 / ip_ratio=1.40 / aq=1:1.00
Language : English

Audio #1
ID : 2
Format : AC-3
Format/Info : Audio Coding 3
Mode extension : CM (complete main)
Muxing mode : Header stripping
Codec ID : A_AC3
Duration : 1h 40mn
Bit rate mode : Constant
Bit rate : 448 Kbps
Channel(s) : 6 channels
Channel positions : Front: L C R, Side: L R, LFE
Sampling rate : 48.0 KHz
Bit depth : 16 bits
Stream size : 322 MiB (11%)
Language : Russian

Audio #2
ID : 3
Format : AC-3
Format/Info : Audio Coding 3
Mode extension : CM (complete main)
Muxing mode : Header stripping
Codec ID : A_AC3
Duration : 1h 40mn
Bit rate mode : Constant
Bit rate : 448 Kbps
Channel(s) : 6 channels
Channel positions : Front: L C R, Side: L R, LFE
Sampling rate : 48.0 KHz
Bit depth : 16 bits
Stream size : 322 MiB (11%)
Language : English

Text
ID : 4
Format : UTF-8
Codec ID : S_TEXT/UTF8
Codec ID/Info : UTF-8 Plain Text
Language : Russian
Rip

Source



   Похожие торренты   Торрент   Размер 
В этой теме нет новых непрочитанных сообщений. Коралина в Cтране Кошмаров / Coraline (2009) BDRip 1080p

90 | 5

4.37 ГБ

В этой теме нет новых непрочитанных сообщений. Коралина в Cтране Кошмаров / Coraline (2009) BDRip 1080p | 3D-Video

1 | 5

6.48 ГБ

В этой теме нет новых непрочитанных сообщений. Коралина в Cтране Кошмаров / Coraline (2009) BDRip 720p | 3D-Video / Анаглиф

215 | 2

5.01 ГБ

В этой теме нет новых непрочитанных сообщений. Коралина в Cтране Кошмаров / Coraline (2009) BDRip 1080p от Youtracker | 3D-Video

21 | 3

10.86 ГБ

В этой теме нет новых непрочитанных сообщений. Коралина в Cтране Кошмаров / Coraline (2009) BDRip 720p | 3D-video (Анаглиф)

11 | 3

2.57 ГБ

В этой теме нет новых непрочитанных сообщений. Коралина в Cтране Кошмаров / Coraline (2009) HDRip

35 | 7

1.46 ГБ

В этой теме нет новых непрочитанных сообщений. Коралина в Cтране Кошмаров / Coraline (2009) HDRip-AVC от R.G. AVI | AVC

86 | 4

2.05 ГБ




Вы не можете начинать темы
Вы не можете отвечать на сообщения
Вы не можете редактировать свои сообщения
Вы не можете удалять свои сообщения
Вы не можете добавлять вложения

Перейти:  
Для Мосгорсуда, Роскомнадзора и рекламодателей: mosgorsud-torrent[собачка]yandex.ru
 Вход
ppkBB3cker v.2 © 2008-2014 @ PPK
[ Time : 0.026s | 14 Queries | GZIP : Off ]

Торрент трекер RUTOR.IN, Не можете зайти на rutor.org? Какой новый адрес рутор? Какое зеркало рутор? Не работает rutor.org и зеркала? Тогда наш торрент специально для вас. Rutor.in неофициальное зеркало rutor. В случае если у Вас заблокирован rutor или вдруг Вы не можете на него зайти, то Вы без труда сможете скачать бесплатно и без рекламы последние новинки кино, игр, сериалов и прочего у нас, на Rutor.in. Не нужно использовать прокси, чтобы зайти на рутор, достаточно воспользоваться нашим ресурсом. Все новые фильмы, игры, сериалы, книги и музыка за 2013 и 2014 годы через торрент бесплатно. Скачивайте фильмы в хорошем качестве, игры для пк, xbox, playstation без регистрации. У нас вы найдете новые Зарубежные сериалы и Русские сериалы 2013, 2014, 2015 годов. Оставайтесь с нами, качайте любимые фильмы, игры, сериалы, книги и музыку.