img image001 image001 image001 image001 image001 image001 image001 image001 image001 image001 image001 image001 image001 image001 image001

Planets Sun Sun Sun
Статистика раздачи
Автор: Снежана | Размер: 2.99 ГБ | Добавлен: 27 июл 2013
Раздают: 5    Качают: 3
Скачать торрент
Скачать торрент
Описание торрента

СообщениеДобавлено: 27 июл 2013 

#77

Информация о фильме
Название: Лови волну!
Оригинальное название: Surf's Up
Год выхода: 2007
Жанр: мультфильм, комедия, семейный, спорт
Режиссер: Эш Браннон, Крис Бак
В ролях: Шайа ЛаБаф, Джефф Бриджес, Зои Дешанель, Джон Хидер, Джеймс Вудс, Дидрих Бадер, Марио Кантоне, Келли Слэйтер, Роб Мачадо, Сал Масикела
Роли дублировали: Тимати,Евгений Ганелин,Марианна Семенова,Павел Воля,Александр Цекало ...
О фильме:
Команда пингвинов-документалистов приглашает зрителей взглянуть за кулисы самого спортивного, драматичного и опасного соревнования серфингистов на планете — Ежегодного Пингвиньего чемпионата мира по серфингу.

Страна: США
Продолжительность: 01:25:31
Перевод: Русский(дублированный) + Английская Оригинальная дорожка

Файл
Кодек: Н264
Качество: BDRip 720p исходник:Blu-ray CEE 1080p AVC DD5.1
Видео: 1280x688 (1,860) , 4121 Кбит/сек , 23,976 кадр/сек , 0.195bit/pixel
Звук:
AC-3,448 Кбит/сек,6 канала(ов),48,0 КГц(Рус)
AC-3,448 Кбит/сек,6 канала(ов),48,0 КГц(Англ)
Субтитры: нет

Семпл
Полное имя : D:торрентLovi_Volnu.2007.x264.BDRip.720p.mkv
Формат : Matroska
Размер файла : 2,99 Гбайт
Продолжительность : 1 ч. 25 м.
Общий поток : 5006 Кбит/сек
Дата кодирования : UTC 2011-02-02 12:33:26
Программа кодирования : mkvmerge v4.4.0 ('Die Wiederkehr') built on Oct 31 2010 21:52:48
Библиотека кодирования : libebml v1.0.0 + libmatroska v1.0.0

Видео
Идентификатор : 1
Формат : AVC
Формат/Информация : Advanced Video Codec
Профиль формата : High@L4.1
Параметр CABAC формата : Да
Параметр ReFrames формата : 16 кадры
Идентификатор кодека : V_MPEG4/ISO/AVC
Продолжительность : 1 ч. 25 м.
Битрейт : 4121 Кбит/сек
Ширина : 1280 пикс.
Высота : 688 пикс.
Соотношение сторон : 1,860
Частота кадров : 23,976 кадр/сек
Цветовое пространство : YUV
Подвыборка цветности : 4:2:0
Битовая глубина : 8 бит
Тип развёртки : Прогрессивная
Бит/(Пиксели*Кадры) : 0.195
Размер потока : 2,40 Гбайт (80%)
Библиотека кодирования : x264 core 112 r1867 22bfd31
Настройки программы : cabac=1 / ref=16 / deblock=1:1:1 / analyse=0x3:0x113 / me=umh / subme=7 / psy=1 / psy_rd=0.40:0.00 / mixed_ref=1 / me_range=32 / chroma_me=1 / trellis=1 / 8x8dct=1 / cqm=0 / deadzone=21,11 / fast_pskip=1 / chroma_qp_offset=-2 / threads=3 / sliced_threads=0 / nr=0 / decimate=1 / interlaced=0 / constrained_intra=0 / bframes=4 / b_pyramid=2 / b_adapt=2 / b_bias=0 / direct=3 / weightb=1 / open_gop=0 / weightp=2 / keyint=250 / keyint_min=23 / scenecut=40 / intra_refresh=0 / rc_lookahead=50 / rc=2pass / mbtree=1 / bitrate=4121 / ratetol=1.0 / qcomp=0.60 / qpmin=0 / qpmax=51 / qpstep=4 / cplxblur=20.0 / qblur=0.5 / ip_ratio=1.40 / aq=1:0.60
Язык : English

Аудио #1
Идентификатор : 2
Формат : AC-3
Формат/Информация : Audio Coding 3
Расширение режима : CM (complete main)
Идентификатор кодека : A_AC3
Продолжительность : 1 ч. 25 м.
Вид битрейта : Постоянный
Битрейт : 448 Кбит/сек
Канал(ы) : 6 канала(ов)
Расположение каналов : Front: L C R, Side: L R, LFE
Частота : 48,0 КГц
Битовая глубина : 16 бит
Метод сжатия : С потерями
Размер потока : 274 Мбайт (9%)
Язык : Russian

Аудио #2
Идентификатор : 3
Формат : AC-3
Формат/Информация : Audio Coding 3
Расширение режима : CM (complete main)
Идентификатор кодека : A_AC3
Продолжительность : 1 ч. 25 м.
Вид битрейта : Постоянный
Битрейт : 448 Кбит/сек
Канал(ы) : 6 канала(ов)
Расположение каналов : Front: L C R, Side: L R, LFE
Частота : 48,0 КГц
Битовая глубина : 16 бит
Метод сжатия : С потерями
Размер потока : 274 Мбайт (9%)
Язык : English

Меню
00:00:00.000 : en:00:00:00.000
00:06:08.159 : en:00:06:08.159
00:12:08.519 : en:00:12:08.519
00:17:43.062 : en:00:17:43.062
00:23:06.176 : en:00:23:06.176
00:27:52.921 : en:00:27:52.921
00:33:00.854 : en:00:33:00.854
00:38:14.417 : en:00:38:14.417
00:44:13.401 : en:00:44:13.401
00:46:43.384 : en:00:46:43.384
00:51:40.014 : en:00:51:40.014
00:55:47.386 : en:00:55:47.386
01:02:08.600 : en:01:02:08.600
01:07:54.946 : en:01:07:54.946
01:12:10.993 : en:01:12:10.993
01:16:24.622 : en:01:16:24.622



Релиз от:



   Похожие торренты   Торрент   Размер 
В этой теме нет новых непрочитанных сообщений. Лови волну! / Surf's Up (2007) BDRip 1080p

139 | 9

4.37 ГБ

В этой теме нет новых непрочитанных сообщений. Лови волну! / Surf's Up (2007) BDRip-AVC от ExKinoRay | D, A

148 | 17

2.53 ГБ

В этой теме нет новых непрочитанных сообщений. Лови волну! / Surf's Up (2007) BDRip 720 от SuperMin

110 | 8

4.37 ГБ

В этой теме нет новых непрочитанных сообщений. Лови волну! / Surf's Up (2007) BDRip от HQCLUB

139 | 15

1.46 ГБ

В этой теме нет новых непрочитанных сообщений. Лови волну! / Surf's Up (2007) BDRip 1080p от ExKinoRay | D, A

31 | 6

8.08 ГБ

В этой теме нет новых непрочитанных сообщений. Лови волну! / Surf's Up (2007) BDRip-AVC от HQCLUB | Лицензия

32 | 12

3.54 ГБ

В этой теме нет новых непрочитанных сообщений. Лови Волну / Surf's Up (2007) DVDRip

0 | 3

700.95 МБ




Вы не можете начинать темы
Вы не можете отвечать на сообщения
Вы не можете редактировать свои сообщения
Вы не можете удалять свои сообщения
Вы не можете добавлять вложения

Перейти:  
Для Мосгорсуда, Роскомнадзора и рекламодателей: mosgorsud-torrent[собачка]yandex.ru
 Вход
ppkBB3cker v.2 © 2008-2014 @ PPK
[ Time : 0.045s | 15 Queries | GZIP : Off ]

Торрент трекер RUTOR.IN, Не можете зайти на rutor.org? Какой новый адрес рутор? Какое зеркало рутор? Не работает rutor.org и зеркала? Тогда наш торрент специально для вас. Rutor.in неофициальное зеркало rutor. В случае если у Вас заблокирован rutor или вдруг Вы не можете на него зайти, то Вы без труда сможете скачать бесплатно и без рекламы последние новинки кино, игр, сериалов и прочего у нас, на Rutor.in. Не нужно использовать прокси, чтобы зайти на рутор, достаточно воспользоваться нашим ресурсом. Все новые фильмы, игры, сериалы, книги и музыка за 2013 и 2014 годы через торрент бесплатно. Скачивайте фильмы в хорошем качестве, игры для пк, xbox, playstation без регистрации. У нас вы найдете новые Зарубежные сериалы и Русские сериалы 2013, 2014, 2015 годов. Оставайтесь с нами, качайте любимые фильмы, игры, сериалы, книги и музыку.