img image001 image001 image001 image001 image001 image001 image001 image001 image001 image001 image001 image001 image001 image001 image001

Planets Sun Sun Sun
Статистика раздачи
Автор: Снежана | Размер: 4.36 ГБ | Добавлен: 27 июл 2013
Раздают: 6    Качают: 4
Скачать торрент
Скачать торрент
Описание торрента

СообщениеДобавлено: 27 июл 2013 

#77

Информация о фильме
Название: Обитель зла: Вырождение
Оригинальное название: Resident Evil: Degeneration
Год выхода: 2008
Жанр: Мультфильм, фантастика, боевик, триллер
Режиссер: Макото Камия
В ролях: Элисон Корт, Пол Мерсье, Лаура Бэйли, Роджер Крэйг Смит, Криспин Фриман, Мишель Руфф, Майкл Сорич, Салли Саффиоти, Мэри Элизабет МакГлинн, Стивен Блум

О фильме:
Нападение зомби приносит хаос в аэропорт Харвардвиль. Клэр Рэдфилд и Леон Кеннеди боровшиеся с корпорацией «Umbrella» во время трагедии в Раккун Сити 7 лет назад вновь вернулись. Они готовы к битве с противником который ищет мести после смерти его семьи в Раккун Сити. Смертельный G-вирус выпущен на свободу и рождает нового мутировавшего монстра. Уничтожат ли Клэр и Леон этот вирус до того как история повторится?



Страна: Япония
Студия: Capcom Company, Resident Evil CG Film Partners, Sony Pictures Entertainment
Продолжительность: 01:36:05
Перевод: Профессиональный (двухголосый закадровый)

Файл
Кодек: x264
Качество: BDRip 720p
Видео: 1280х720 (16:9), 5612 Kbps, 23,976 fps, 0.254 bit/pixel
Звук 1#: Русский AC3 Dolby Digital; 48 kHz, 6 ch, 448 kbps
Звук 2#: Английский AC3 Dolby Digital; 48 kHz, 6 ch, 448 kbps
Субтитры: Русские, английские

Общее
Уникальный идентификатор : 222344957956601367392615438632817699618 (0xA74614CCE12AB4219E64034213A6AB22)
Полное имя : F:Resident Evi.Degeneration.2008.x264.BDRip.720p.mkv
Формат : Matroska
Размер файла : 4,36 Гбайт
Продолжительность : 1 ч. 36 м.
Общий поток : 6493 Кбит/сек
Дата кодирования : UTC 2011-02-04 19:24:38
Программа кодирования : mkvmerge v4.4.0 ('Die Wiederkehr') сборка от Oct 31 2010 21:52:48
Библиотека кодирования : libebml v1.0.0 + libmatroska v1.0.0

Видео
Идентификатор : 1
Формат : AVC
Формат/Информация : Advanced Video Codec
Профиль формата : High@L4.1
Параметр CABAC формата : Да
Параметр ReFrames формата : 8 кадры
Режим смешивания : Header stripping
Идентификатор кодека : V_MPEG4/ISO/AVC
Продолжительность : 1 ч. 36 м.
Битрейт : 5612 Кбит/сек
Ширина : 1280 пикс.
Высота : 720 пикс.
Соотношение сторон : 16:9
Частота кадров : 23,976 кадр/сек
Цветовое пространство : YUV
Подвыборка цветности : 4:2:0
Битовая глубина : 8 бит
Тип развёртки : Прогрессивная
Бит/(Пиксели*Кадры) : 0.254
Размер потока : 3,67 Гбайт (84%)
Библиотека кодирования : x264 core 113 r1884 7313bb5
Настройки программы : cabac=1 / ref=9 / deblock=1:-3:-3 / analyse=0x3:0x133 / me=umh / subme=10 / psy=1 / psy_rd=1.00:0.00 / mixed_ref=1 / me_range=64 / chroma_me=1 / trellis=2 / 8x8dct=1 / cqm=0 / deadzone=21,11 / fast_pskip=0 / chroma_qp_offset=-2 / threads=6 / sliced_threads=0 / nr=0 / decimate=1 / interlaced=0 / constrained_intra=0 / bframes=3 / b_pyramid=1 / b_adapt=2 / b_bias=0 / direct=3 / weightb=1 / open_gop=0 / weightp=2 / keyint=250 / keyint_min=23 / scenecut=40 / intra_refresh=0 / rc_lookahead=60 / rc=2pass / mbtree=1 / bitrate=5612 / ratetol=1.0 / qcomp=0.60 / qpmin=0 / qpmax=69 / qpstep=4 / cplxblur=20.0 / qblur=0.5 / vbv_maxrate=40000 / vbv_bufsize=40000 / nal_hrd=none / ip_ratio=1.40 / aq=1:1.00
Язык : Japanese

Аудио #1
Идентификатор : 2
Формат : AC-3
Формат/Информация : Audio Coding 3
Расширение режима : CM (complete main)
Режим смешивания : Header stripping
Идентификатор кодека : A_AC3
Продолжительность : 1 ч. 36 м.
Вид битрейта : Постоянный
Битрейт : 448 Кбит/сек
Канал(ы) : 6 канала(ов)
Расположение каналов : Front: L C R, Side: L R, LFE
Частота : 48,0 КГц
Битовая глубина : 16 бит
Метод сжатия : С потерями
Размер потока : 308 Мбайт (7%)
Язык : Russian

Аудио #2
Идентификатор : 3
Формат : AC-3
Формат/Информация : Audio Coding 3
Расширение режима : CM (complete main)
Режим смешивания : Header stripping
Идентификатор кодека : A_AC3
Продолжительность : 1 ч. 36 м.
Вид битрейта : Постоянный
Битрейт : 448 Кбит/сек
Канал(ы) : 6 канала(ов)
Расположение каналов : Front: L C R, Side: L R, LFE
Частота : 48,0 КГц
Битовая глубина : 16 бит
Метод сжатия : С потерями
Размер потока : 308 Мбайт (7%)
Язык : English

Текст #1
Идентификатор : 4
Формат : UTF-8
Идентификатор кодека : S_TEXT/UTF8
Идентификатор кодека/Информация : UTF-8 Plain Text
Язык : Russian

Текст #2
Идентификатор : 5
Формат : UTF-8
Идентификатор кодека : S_TEXT/UTF8
Идентификатор кодека/Информация : UTF-8 Plain Text
Язык : English






Автор рипа: ZL9XM

Приятного просмотра!



   Похожие торренты   Торрент   Размер 
В этой теме нет новых непрочитанных сообщений. Обитель зла: Вырождение / Resident Evil: Degeneration (2008) BDRip от HQ-ViDEO

8 | 4

1.75 ГБ

В этой теме нет новых непрочитанных сообщений. Обитель зла: Вырождение / Resident Evil: Degeneration (2008) BDRip от HQCLUB

59 | 12

1.46 ГБ

В этой теме нет новых непрочитанных сообщений. Обитель зла: Вырождение / Resident Evil: Degeneration (2008) BDRip 720 от SuperMin

7 | 19

3.85 ГБ

В этой теме нет новых непрочитанных сообщений. Обитель зла: Вырождение / Resident Evil: Degeneration (2008) BDRip-AVC от ExKinoRay

19 | 8

1.98 ГБ

В этой теме нет новых непрочитанных сообщений. Обитель зла: Вырождение / Resident Evil: Degeneration (2008) BDRip от Freeisland

2 | 5

2.15 ГБ

В этой теме нет новых непрочитанных сообщений. Обитель зла: Вырождение / Resident Evil: Degeneration (2008) BDRip 1080 от SuperMin

80 | 23

5.66 ГБ

В этой теме нет новых непрочитанных сообщений. Обитель зла: Вырождение / Resident Evil: Degeneration (2008) BDRip 1080 от Freeisland

9 | 7

7.96 ГБ




Вы не можете начинать темы
Вы не можете отвечать на сообщения
Вы не можете редактировать свои сообщения
Вы не можете удалять свои сообщения
Вы не можете добавлять вложения

Перейти:  
Для Мосгорсуда, Роскомнадзора и рекламодателей: mosgorsud-torrent[собачка]yandex.ru
 Вход
ppkBB3cker v.2 © 2008-2014 @ PPK
[ Time : 0.509s | 17 Queries | GZIP : Off ]

Торрент трекер RUTOR.IN, Не можете зайти на rutor.org? Какой новый адрес рутор? Какое зеркало рутор? Не работает rutor.org и зеркала? Тогда наш торрент специально для вас. Rutor.in неофициальное зеркало rutor. В случае если у Вас заблокирован rutor или вдруг Вы не можете на него зайти, то Вы без труда сможете скачать бесплатно и без рекламы последние новинки кино, игр, сериалов и прочего у нас, на Rutor.in. Не нужно использовать прокси, чтобы зайти на рутор, достаточно воспользоваться нашим ресурсом. Все новые фильмы, игры, сериалы, книги и музыка за 2013 и 2014 годы через торрент бесплатно. Скачивайте фильмы в хорошем качестве, игры для пк, xbox, playstation без регистрации. У нас вы найдете новые Зарубежные сериалы и Русские сериалы 2013, 2014, 2015 годов. Оставайтесь с нами, качайте любимые фильмы, игры, сериалы, книги и музыку.
cron