img image001 image001 image001 image001 image001 image001 image001 image001 image001 image001 image001 image001 image001 image001 image001

Planets Sun Sun Sun
Статистика раздачи
Автор: Снежана | Размер: 4.36 ГБ | Добавлен: 27 июл 2013
Раздают: 2    Качают: 2
Скачать торрент
Скачать торрент
Описание торрента

СообщениеДобавлено: 27 июл 2013 

Легенды ночных стражей
Legend of the Guardians: The Owls of Ga'Hoole
(2010) BDRip-AVC 1080p от FREEISLAND




Информация о фильме
Название: Легенды ночных стражей
Оригинальное название: Legend of the Guardians: The Owls of Ga'Hoole
Год выхода: 2010
Жанр: фэнтези, приключения, мультфильм
Режиссер: Зак Снайдер
В ролях: Джим Стерджесс, Джоэл Эдгертон, Хьюго Уивинг, Эдриэнн ДеФариа, Ричард Роксбург, Дэвид Уэнэм, Хелен Миррен, Мириам Марголис, Сэм Нил, Джеффри Раш

О фильме:
Миром, в котором уже не осталось людей, правят совы… добрые… злые… как и всегда! В волшебном лесу - королевстве сов Тито - на Великом Дереве Га`Хуул, где разумные совы живут в гармонии, наступают мрачные времена. Королевство подвергается страшной опасности со стороны соседних жестоких правителей, и эта опасность грозит уничтожить привычное мироздание.



Официальный сайт

Страна: США / Австралия
Выпущено: Warner Bros. Pictures / Animal Logic
Продолжительность: 01:36:49
Перевод: русский (дублированый), украинский (дублированый)
Оригинальная разбивка на главы: сохранена

Файл
Качество: BDRip-AVC 1080p
Исходник: Blu-Ray Disc
Контейнер: MKV
Видео кодек: x264
Аудио кодек: AC3
Видео: AVC at 5175 Кбит/сек, 1920 x 816 (2.353) at 23.976 fps
Аудио 1: Русский AC-3 at 640 Кбит/сек, 6 канала(ов), 48,0 КГц
Аудио 2: Украинский AC-3 at 640 Кбит/сек, 6 канала(ов), 48,0 КГц
Субтитры: русские, полные, на дубляж (VobSub)

Общее
Уникальный идентификатор : 202315220323918974439530830879250410845 (0x98347E7D83F40D28B0C1FEFD68C36D5D)
Полное имя : Легенды ночных стражей [Legend of the Guardians. The Owls of Ga’Hoole] (2010) BDRip-AVC 1080p.mkv
Формат : Matroska
Размер файла : 4,36 Гбайт
Продолжительность : 1 ч. 36 м.
Общий поток : 6446 Кбит/сек
Название фильма : релиз от FREEISLAND.ORG
Дата кодирования : UTC 2011-02-01 18:51:10
Программа кодирования : mkvmerge v3.4.0 ('Rapunzel') сборка от May 15 2010 09:38:20
Библиотека кодирования : libebml v0.8.0 + libmatroska v0.9.0

Видео
Идентификатор : 1
Формат : AVC
Формат/Информация : Advanced Video Codec
Профиль формата : High@L5.1
Параметр CABAC формата : Да
Параметр ReFrames формата : 16 кадры
Идентификатор кодека : V_MPEG4/ISO/AVC
Продолжительность : 1 ч. 36 м.
Битрейт : 5175 Кбит/сек
Ширина : 1920 пикс.
Высота : 816 пикс.
Соотношение сторон : 2,35:1
Частота кадров : 23,976 кадр/сек
Цветовое пространство : YUV
Подвыборка цветности : 4:2:0
Битовая глубина : 8 бит
Тип развёртки : Прогрессивная
Бит/(Пиксели*Кадры) : 0.138
Размер потока : 3,41 Гбайт (78%)
Библиотека кодирования : x264 core 113 r1884 7313bb5
Настройки программы : cabac=1 / ref=16 / deblock=1:1:1 / analyse=0x3:0x133 / me=umh / subme=10 / psy=1 / psy_rd=1.00:0.00 / mixed_ref=1 / me_range=64 / chroma_me=1 / trellis=2 / 8x8dct=1 / cqm=0 / deadzone=21,11 / fast_pskip=1 / chroma_qp_offset=-2 / threads=12 / sliced_threads=0 / nr=0 / decimate=1 / interlaced=0 / constrained_intra=0 / bframes=9 / b_pyramid=2 / b_adapt=2 / b_bias=0 / direct=2 / weightb=1 / open_gop=0 / weightp=2 / keyint=250 / keyint_min=23 / scenecut=40 / intra_refresh=0 / rc=2pass / mbtree=0 / bitrate=5175 / ratetol=1.0 / qcomp=1.00 / qpmin=4 / qpmax=48 / qpstep=4 / cplxblur=20.0 / qblur=0.5 / ip_ratio=1.40 / pb_ratio=1.30 / aq=1:1.00 / zones=130800,139246,q=40
Основные цвета : BT.709-5, BT.1361, IEC 61966-2-4, SMPTE RP177
Характеристики трансфера : BT.709-5, BT.1361
Коэффициенты матрицы : BT.709-5, BT.1361, IEC 61966-2-4 709, SMPTE RP177

Аудио #1
Идентификатор : 2
Формат : AC-3
Формат/Информация : Audio Coding 3
Расширение режима : CM (complete main)
Идентификатор кодека : A_AC3
Продолжительность : 1 ч. 36 м.
Вид битрейта : Постоянный
Битрейт : 640 Кбит/сек
Канал(ы) : 6 канала(ов)
Расположение каналов : Front: L C R, Side: L R, LFE
Частота : 48,0 КГц
Битовая глубина : 16 бит
Метод сжатия : С потерями
Размер потока : 443 Мбайт (10%)
Заголовок : дубляж
Язык : Russian

Аудио #2
Идентификатор : 3
Формат : AC-3
Формат/Информация : Audio Coding 3
Расширение режима : CM (complete main)
Идентификатор кодека : A_AC3
Продолжительность : 1 ч. 36 м.
Вид битрейта : Постоянный
Битрейт : 640 Кбит/сек
Канал(ы) : 6 канала(ов)
Расположение каналов : Front: L C R, Side: L R, LFE
Частота : 48,0 КГц
Битовая глубина : 16 бит
Метод сжатия : С потерями
Размер потока : 443 Мбайт (10%)
Заголовок : дубляж
Язык : Ukrainian

Текст
Идентификатор : 4
Формат : VobSub
Режим смешивания : zlib
Идентификатор кодека : S_VOBSUB
Идентификатор кодека/Информация : The same subtitle format used on DVDs
Заголовок : полные на дубляж
Язык : Russian

Меню
00:00:00.000 : en:01
00:10:52.026 : en:02
00:20:10.417 : en:03
00:30:07.139 : en:04
00:40:01.274 : en:05
00:49:57.828 : en:06
01:00:34.297 : en:07
01:09:45.181 : en:08
01:18:58.150 : en:09
01:28:04.195 : en:10












Релиз от:



   Похожие торренты   Торрент   Размер 
В этой теме нет новых непрочитанных сообщений. Легенды ночных стражей / Legend of the Guardians: The Owls of Ga’Hoole (2010) BDRip 1080p

27 | 5

4.37 ГБ

В этой теме нет новых непрочитанных сообщений. Легенды ночных стражей / Legend of the Guardians: The Owls of Ga’Hoole (2010) BDRip 1080p

26 | 2

8.29 ГБ

В этой теме нет новых непрочитанных сообщений. Легенды ночных стражей / Legend of the Guardians: The Owls of Ga'Hoole (2010) BDRip 1080p | 3D-Video

20 | 8

12.99 ГБ

В этой теме нет новых непрочитанных сообщений. Легенды ночных стражей в 3Д / Legend of the Guardians: The Owls of Ga’Hoole 3D (2010) BDRip 1080p от Youtracker | 3D-Video

44 | 3

9.08 ГБ

В этой теме нет новых непрочитанных сообщений. Легенды ночных стражей / Legend of the Guardians: The Owls of Ga’Hoole (2010) BDRip 1080p | 3D-Video / Анаглиф

31 | 1

5.72 ГБ

В этой теме нет новых непрочитанных сообщений. Легенды ночных стражей / Legend of the Guardians: The Owls of Ga’Hoole (2010) BDRip 1080p от Leonardo and Scarabey | Лицензия

200 | 13

5.45 ГБ

В этой теме нет новых непрочитанных сообщений. Легенды ночных стражей / Legend of the Guardians: The Owls of Ga’Hoole (2010) BDRip-AVC

3 | 1

1.65 ГБ




Вы не можете начинать темы
Вы не можете отвечать на сообщения
Вы не можете редактировать свои сообщения
Вы не можете удалять свои сообщения
Вы не можете добавлять вложения

Перейти:  
Для Мосгорсуда, Роскомнадзора и рекламодателей: mosgorsud-torrent[собачка]yandex.ru
 Вход
ppkBB3cker v.2 © 2008-2014 @ PPK
[ Time : 0.039s | 15 Queries | GZIP : On ]

Торрент трекер RUTOR.IN, Не можете зайти на rutor.org? Какой новый адрес рутор? Какое зеркало рутор? Не работает rutor.org и зеркала? Тогда наш торрент специально для вас. Rutor.in неофициальное зеркало rutor. В случае если у Вас заблокирован rutor или вдруг Вы не можете на него зайти, то Вы без труда сможете скачать бесплатно и без рекламы последние новинки кино, игр, сериалов и прочего у нас, на Rutor.in. Не нужно использовать прокси, чтобы зайти на рутор, достаточно воспользоваться нашим ресурсом. Все новые фильмы, игры, сериалы, книги и музыка за 2013 и 2014 годы через торрент бесплатно. Скачивайте фильмы в хорошем качестве, игры для пк, xbox, playstation без регистрации. У нас вы найдете новые Зарубежные сериалы и Русские сериалы 2013, 2014, 2015 годов. Оставайтесь с нами, качайте любимые фильмы, игры, сериалы, книги и музыку.