img image001 image001 image001 image001 image001 image001 image001 image001 image001 image001 image001 image001 image001 image001 image001

Planets Sun Sun Sun
Статистика раздачи
Автор: Снежана | Размер: 4.36 ГБ | Добавлен: 27 июл 2013, 04:03
Раздают: 41    Качают: 13
Скачать торрент
Скачать торрент
Описание торрента

СообщениеДобавлено: 27 июл 2013, 04:03 

Мулан | Mulan
(1998)
HDTVRip-AVC 1080p от FREEISLAND




Информация о фильме
Название: Мулан
Оригинальное название: Mulan
Год выхода: 1998
Жанр: приключения, мультфильм
Режиссер: Тони Бэнкрофт, Бэрри Кук
Роли озвучивали: Мигель Феррер, Харви Файерстин, Фреда Фо Шен, Джун Форэй, Джеймс Хонг, Мириам Марголис, Пэт Морита, Эдди Мёрфи, Марни Никсон, Сун-Тек Ох
Роли дублировали: Николай Буров, Валерий Кравченко, Татьяна Иванова, Нина Потаповская, Владимир Летенков, Людмила Ксенофонтова, Александр Демьяненко, Валерий Кухарешин, Игорь Ефимов, Геннадий Смирнов

О фильме:
Для великого народа наступили тяжелые времена: на страну напало воинственное племя гуннов. Переодевшись в мужскую одежду, Мулан присоединяется к другим воинам и отправляется в опасный поход к подножию заснеженных гор. Ее сопровождает забавный дракончик Мушу, который больше похож на маленькую собачку, чем на мифическое чудовище. Пытаясь скрыть тайну, они попадают в забавные ситуации и не подозревают, что их секрет вот-вот раскроется!…



Страна: США
Выпущено: Buena Vista
Продолжительность: 1 ч. 27 м. 50 с.
Перевод: русский (дублированый)
Навигация по главам: присутствует

Файл
Качество: HDTVRip 1080p
Исходник: HDTVRip 1080i c японского канала WOWOW
Контейнер: MKV
Видео кодек: x264
Аудио кодек: AC3
Видео: AVC at 6750 Кбит/сек, 1916 x 1040 (1.842) at 23.976 fps
Аудио: Русский AC-3 at 384 Кбит/сек, 6 канала(ов), 48,0 КГц
Субтитры 1: русские, лицензия, SRT/UTF8
Субтитры 2: русские, для слабослышащих, SRT/UTF8
Субтитры 3: русские, комментарии, SRT/UTF8

Общее
Уникальный идентификатор : 204844727019763451977046424174885734483 (0x9A1BA8CC95C1ABE08B2C2C7B60920853)
Полное имя : Мулан [Mulan] (1998) HDTVRip-AVC 1080p.mkv
Формат : Matroska
Размер файла : 4,36 Гбайт
Продолжительность : 1 ч. 27 м.
Общий поток : 7110 Кбит/сек
Дата кодирования : UTC 2011-02-10 17:49:53
Программа кодирования : mkvmerge v3.4.0 ('Rapunzel') сборка от May 15 2010 09:38:20
Библиотека кодирования : libebml v0.8.0 + libmatroska v0.9.0
Обложка : Yes

Видео
Идентификатор : 1
Формат : AVC
Формат/Информация : Advanced Video Codec
Профиль формата : High@L5.1
Параметр CABAC формата : Да
Параметр ReFrames формата : 16 кадры
Идентификатор кодека : V_MPEG4/ISO/AVC
Продолжительность : 1 ч. 27 м.
Битрейт : 6750 Кбит/сек
Ширина : 1916 пикс.
Высота : 1040 пикс.
Соотношение сторон : 16:9
Частота кадров : 23,976 кадр/сек
Цветовое пространство : YUV
Подвыборка цветности : 4:2:0
Битовая глубина : 8 бит
Тип развёртки : Прогрессивная
Бит/(Пиксели*Кадры) : 0.141
Размер потока : 4,04 Гбайт (93%)
Библиотека кодирования : x264 core 113 r1884 7313bb5
Настройки программы : cabac=1 / ref=16 / deblock=1:1:1 / analyse=0x3:0x133 / me=umh / subme=10 / psy=1 / psy_rd=1.00:0.00 / mixed_ref=1 / me_range=64 / chroma_me=1 / trellis=2 / 8x8dct=1 / cqm=0 / deadzone=21,11 / fast_pskip=0 / chroma_qp_offset=-2 / threads=12 / sliced_threads=0 / nr=0 / decimate=1 / interlaced=0 / constrained_intra=0 / bframes=12 / b_pyramid=2 / b_adapt=2 / b_bias=0 / direct=2 / weightb=1 / open_gop=0 / weightp=2 / keyint=250 / keyint_min=23 / scenecut=40 / intra_refresh=0 / rc=2pass / mbtree=0 / bitrate=6750 / ratetol=1.0 / qcomp=1.00 / qpmin=4 / qpmax=48 / qpstep=4 / cplxblur=20.0 / qblur=0.5 / ip_ratio=1.40 / pb_ratio=1.30 / aq=1:1.00 / zones=117078,126190,q=40
Основные цвета : BT.709-5, BT.1361, IEC 61966-2-4, SMPTE RP177
Характеристики трансфера : BT.709-5, BT.1361
Коэффициенты матрицы : BT.709-5, BT.1361, IEC 61966-2-4 709, SMPTE RP177

Аудио
Идентификатор : 2
Формат : AC-3
Формат/Информация : Audio Coding 3
Расширение режима : CM (complete main)
Идентификатор кодека : A_AC3
Продолжительность : 1 ч. 27 м.
Вид битрейта : Постоянный
Битрейт : 384 Кбит/сек
Канал(ы) : 6 канала(ов)
Расположение каналов : Front: L C R, Side: L R, LFE
Частота : 48,0 КГц
Битовая глубина : 16 бит
Метод сжатия : С потерями
Размер потока : 241 Мбайт (5%)
Заголовок : полное дублирование
Язык : Russian

Текст #1
Идентификатор : 3
Формат : UTF-8
Идентификатор кодека : S_TEXT/UTF8
Идентификатор кодека/Информация : UTF-8 Plain Text
Заголовок : RUS R5, полные, на дубляж.
Язык : Russian

Текст #2
Идентификатор : 4
Формат : UTF-8
Идентификатор кодека : S_TEXT/UTF8
Идентификатор кодека/Информация : UTF-8 Plain Text
Заголовок : RUS SDH, для слабослышащих
Язык : Russian

Текст #3
Идентификатор : 5
Формат : UTF-8
Идентификатор кодека : S_TEXT/UTF8
Идентификатор кодека/Информация : UTF-8 Plain Text
Заголовок : комментарии создателей
Язык : Russian

Меню
00:00:00.000 : en:Main Title
00:00:57.000 : en:The Huns Attack
00:03:04.000 : en:Last-Minute Review
00:05:04.000 : en:"Honor to Us All"
00:09:03.000 : en:The Matchmaker
00:11:53.000 : en:"Reflection"
00:14:06.000 : en:A Proclamation From the Emperor
00:17:35.000 : en:Mulan's Choice
00:20:13.000 : en:The Ancestors
00:24:32.000 : en:A Guardian for Mulan
00:25:24.500 : en:A Message for the Emperor
00:26:52.300 : en:The Powerful Mushu
00:29:08.000 : en:A Man's World
00:31:07.000 : en:The Greatest Troops of All Time
00:34:47.000 : en:Rise and Shine
00:36:09.000 : en:"I'll Make a Man Out of You"
00:42:06.000 : en:Close Call
00:44:36.000 : en:Mushu's Plan
00:46:35.000 : en:Urgent News From the General
00:47:35.000 : en:"A Girl Worth Fighting For"
00:49:47.000 : en:A Village Destroyed
00:52:49.000 : en:The Hun Onslaught
00:59:47.000 : en:The Masquerade Is Over
01:04:14.000 : en:Indestructible Huns
01:06:00.700 : en:Victory Celebration
01:08:41.000 : en:Huns in the Imperial City
01:09:14.000 : en:Saving the Emperor
01:15:17.000 : en:Honor for Mulan
01:18:50.000 : en:Homecoming
01:20:48.000 : en:"True to Your Heart"/End Credits












Релиз от:



   Похожие торренты   Торрент   Размер 
В этой теме нет новых непрочитанных сообщений. Мулан / Mulan (1998) BDRip 1080p [Hi10P] от FREEISLAND

155 | 11

2.91 ГБ

В этой теме нет новых непрочитанных сообщений. Мулан 2 / Mulan II (2004) BDRip 1080p [Hi10P] от FREEISLAND

518 | 20

2.91 ГБ

В этой теме нет новых непрочитанных сообщений. Мулан 2 / Mulan 2 (2004) DVDRip-AVC от FREEISLAND

171 | 13

1.36 ГБ

В этой теме нет новых непрочитанных сообщений. Мулан / Mulan (1998) DVDRip-AVC

15 | 2

1007.69 МБ

В этой теме нет новых непрочитанных сообщений. Мулан / Mulan (1998) HDRip от Scarabey | D

148 | 13

745.97 МБ

В этой теме нет новых непрочитанных сообщений. Мулан / Mulan (1998) HDRip от New-Team

262 | 24

747.51 МБ

В этой теме нет новых непрочитанных сообщений. Мулан / Mulan (1998) BDRip от HQCLUB

1463 | 41

1.45 ГБ




Вы не можете начинать темы
Вы не можете отвечать на сообщения
Вы не можете редактировать свои сообщения
Вы не можете удалять свои сообщения
Вы не можете добавлять вложения

Перейти:  
Для Мосгорсуда, Роскомнадзора и рекламодателей: mosgorsud-torrent[собачка]yandex.ru
Настройки
ppkBB3cker v.2 © 2008-2014 @ PPK
[ Time : 0.015s | 16 Queries | GZIP : Off ]
CGP [Extreme] output time : 0.00022s | 0 Queries | GZIP : Off

Торрент трекер RUTOR.IN, Не можете зайти на rutor.org? Какой новый адрес рутор? Какое зеркало рутор? Не работает rutor.org и зеркала? Тогда наш торрент специально для вас. Rutor.in неофициальное зеркало rutor. В случае если у Вас заблокирован rutor или вдруг Вы не можете на него зайти, то Вы без труда сможете скачать бесплатно и без рекламы последние новинки кино, игр, сериалов и прочего у нас, на Rutor.in. Не нужно использовать прокси, чтобы зайти на рутор, достаточно воспользоваться нашим ресурсом. Все новые фильмы, игры, сериалы, книги и музыка за 2013 и 2014 годы через торрент бесплатно. Скачивайте фильмы в хорошем качестве, игры для пк, xbox, playstation без регистрации. У нас вы найдете новые Зарубежные сериалы и Русские сериалы 2013, 2014, 2015 годов. Оставайтесь с нами, качайте любимые фильмы, игры, сериалы, книги и музыку.