img image001 image001 image001 image001 image001 image001 image001 image001 image001 image001 image001 image001 image001 image001 image001

Planets Sun Sun Sun
Статистика раздачи
Автор: Снежана | Размер: 1.36 ГБ | Добавлен: 27 июл 2013
Раздают: 171    Качают: 13
Скачать торрент
Скачать торрент
Описание торрента

СообщениеДобавлено: 27 июл 2013 

Мулан 2 | Mulan 2
(2004)
DVDRip-AVC от FREEISLAND




Информация о фильме
Название: Мулан 2
Оригинальное название: Mulan 2
Год выхода: 2004
Жанр: приключения, мультфильм
Режиссер: Даррел Руни, Лин Сазерленд / Darrell Rooney, Lynne Southerland
Роли озвучивали: Минг-На; Би. Ди Вонг; Марк Мосли; Люси Лу; Харви Ферштейн; Сандра О и др.

О фильме:
Новое увлекательное путешествие с уже знакомыми героями — отважной китайской воительницей Мулан и ее верным другом Ли Шанем. На сей раз им, храбрым победителям монгольских орд, предстоит самая ответственная миссия в жизни. Это… свадьба.
Но, прежде чем Мулан и Ли Шань поженятся, они должны позаботиться и о чужом счастье, доставив трех китайских принцесс их женихам. Легкая задача? Не очень, если вам «помогает» самый легкомысленный дракон в мире Мушу, а коварные монголы уже затевают новые козни!



Страна: США
Выпущено: Walt Disney Pictures
Продолжительность: 1 ч. 15 м. 29 с.
Перевод: русский (дублированый)
Навигация по главам: присутствует

Файл
Качество: DVDRip-AVC
Исходник: DVD9
Контейнер: MKV
Видео кодек: x264
Аудио кодек: AC3
Видео: AVC at 2200 Кбит/сек, 720 x 576 @ 1024 x 576 (1.778) at 25.000 fps
Аудио: Русский AC-3 at 384 Кбит/сек, 6 канала(ов), 48,0 КГц
Субтитры: русские, лицензия, SRT/UTF8
Общее
Уникальный идентификатор : 204632668002111068888815732446556123836 (0x99F2D17B7CAA94709D622443F91CF2BC)
Полное имя : Мулан 2 [Mulan 2] (2004) DVDRip-AVC.mkv
Формат : Matroska
Размер файла : 1,36 Гбайт
Продолжительность : 1 ч. 15 м.
Общий поток : 2585 Кбит/сек
Название фильма : релиз от FREEISLAND.ORG
Дата кодирования : UTC 2011-02-14 17:11:38
Программа кодирования : mkvmerge v3.4.0 ('Rapunzel') сборка от May 15 2010 09:38:20
Библиотека кодирования : libebml v0.8.0 + libmatroska v0.9.0

Видео
Идентификатор : 1
Формат : AVC
Формат/Информация : Advanced Video Codec
Профиль формата : High@L5.1
Параметр CABAC формата : Да
Параметр ReFrames формата : 16 кадры
Идентификатор кодека : V_MPEG4/ISO/AVC
Продолжительность : 1 ч. 15 м.
Битрейт : 2200 Кбит/сек
Ширина : 720 пикс.
Высота : 576 пикс.
Соотношение сторон : 16:9
Частота кадров : 25,000 кадр/сек
Стандарт вещания : PAL
Цветовое пространство : YUV
Подвыборка цветности : 4:2:0
Битовая глубина : 8 бит
Тип развёртки : Прогрессивная
Бит/(Пиксели*Кадры) : 0.212
Размер потока : 1,13 Гбайт (83%)
Библиотека кодирования : x264 core 114 r1900 60ef1f8
Настройки программы : cabac=1 / ref=16 / deblock=1:1:1 / analyse=0x3:0x133 / me=esa / subme=10 / psy=1 / psy_rd=1.00:0.00 / mixed_ref=1 / me_range=64 / chroma_me=1 / trellis=2 / 8x8dct=1 / cqm=0 / deadzone=21,11 / fast_pskip=0 / chroma_qp_offset=-2 / threads=12 / sliced_threads=0 / nr=0 / decimate=1 / interlaced=0 / constrained_intra=0 / bframes=13 / b_pyramid=2 / b_adapt=2 / b_bias=0 / direct=2 / weightb=1 / open_gop=0 / weightp=2 / keyint=250 / keyint_min=25 / scenecut=40 / intra_refresh=0 / rc=2pass / mbtree=0 / bitrate=2200 / ratetol=1.0 / qcomp=1.00 / qpmin=4 / qpmax=48 / qpstep=4 / cplxblur=20.0 / qblur=0.5 / ip_ratio=1.40 / pb_ratio=1.30 / aq=1:1.00

Аудио
Идентификатор : 2
Формат : AC-3
Формат/Информация : Audio Coding 3
Расширение режима : CM (complete main)
Идентификатор кодека : A_AC3
Продолжительность : 1 ч. 15 м.
Вид битрейта : Постоянный
Битрейт : 384 Кбит/сек
Канал(ы) : 6 канала(ов)
Расположение каналов : Front: L C R, Side: L R, LFE
Частота : 48,0 КГц
Битовая глубина : 16 бит
Метод сжатия : С потерями
Размер потока : 207 Мбайт (15%)
Заголовок : дубляж
Язык : Russian

Текст
Идентификатор : 3
Формат : UTF-8
Идентификатор кодека : S_TEXT/UTF8
Идентификатор кодека/Информация : UTF-8 Plain Text
Заголовок : полные на дубляж
Язык : Russian

Меню
00:00:00.000 : en:Opening Credits
00:03:04.360 : en:"Lesson #1"
00:07:53.480 : en:Shang's Proposal
00:11:43.200 : en:Mushu's On His Way Out!
00:13:41.280 : en:Yin & Yang
00:16:34.720 : en:The New Mission
00:19:09.120 : en:"A Girl Worth Fighting For"
00:24:06.320 : en:The Princesses and Their Guards
00:30:34.320 : en:Mushu's Meddling
00:36:28.320 : en:"Like Other Girls"
00:40:35.920 : en:Mushu's Puppet Show
00:49:07.200 : en:Breaking a Vow
00:59:37.000 : en:Fulfilling the Duty
01:02:19.200 : en:The Wedding
01:07:21.520 : en:Back on the Pedestal
01:10:24.400 : en:End Credits / "(I Wanna Be) Like Other Girls" / "Here Beside Me"












Релиз от:



   Похожие торренты   Торрент   Размер 
В этой теме нет новых непрочитанных сообщений. Мулан 2 / Mulan II (2004) BDRip 1080p [Hi10P] от FREEISLAND

518 | 20

2.91 ГБ

В этой теме нет новых непрочитанных сообщений. Мулан: Дилогия / Mulan: Dilogy (1998/2004) DVDRip

42 | 24

2.73 ГБ

В этой теме нет новых непрочитанных сообщений. Мулан / Mulan (1998) HDTVRip-AVC 1080p от FREEISLAND

41 | 13

4.36 ГБ

В этой теме нет новых непрочитанных сообщений. Мулан / Mulan (1998) BDRip 1080p [Hi10P] от FREEISLAND

155 | 11

2.91 ГБ

В этой теме нет новых непрочитанных сообщений. Мулан 2 / Mulan II (2004) HDRip от Scarabey | D

257 | 8

1.44 ГБ

В этой теме нет новых непрочитанных сообщений. Мулан 2 / Mulan 2 (2004) BDRip от HQCLUB

349 | 41

1.45 ГБ

В этой теме нет новых непрочитанных сообщений. Мулан 2 / Mulan 2 (2004) BDRip-AVC от MediaClub | D

261 | 11

1.54 ГБ




Вы не можете начинать темы
Вы не можете отвечать на сообщения
Вы не можете редактировать свои сообщения
Вы не можете удалять свои сообщения
Вы не можете добавлять вложения

Перейти:  
Для Мосгорсуда, Роскомнадзора и рекламодателей: mosgorsud-torrent[собачка]yandex.ru
 Вход
ppkBB3cker v.2 © 2008-2014 @ PPK
[ Time : 0.037s | 15 Queries | GZIP : Off ]

Торрент трекер RUTOR.IN, Не можете зайти на rutor.org? Какой новый адрес рутор? Какое зеркало рутор? Не работает rutor.org и зеркала? Тогда наш торрент специально для вас. Rutor.in неофициальное зеркало rutor. В случае если у Вас заблокирован rutor или вдруг Вы не можете на него зайти, то Вы без труда сможете скачать бесплатно и без рекламы последние новинки кино, игр, сериалов и прочего у нас, на Rutor.in. Не нужно использовать прокси, чтобы зайти на рутор, достаточно воспользоваться нашим ресурсом. Все новые фильмы, игры, сериалы, книги и музыка за 2013 и 2014 годы через торрент бесплатно. Скачивайте фильмы в хорошем качестве, игры для пк, xbox, playstation без регистрации. У нас вы найдете новые Зарубежные сериалы и Русские сериалы 2013, 2014, 2015 годов. Оставайтесь с нами, качайте любимые фильмы, игры, сериалы, книги и музыку.
cron