img image001 image001 image001 image001 image001 image001 image001 image001 image001 image001 image001 image001 image001 image001 image001

Planets Sun Sun Sun
Статистика раздачи
Автор: Снежана | Размер: 2.19 ГБ | Добавлен: 27 июл 2013
Раздают: 84    Качают: 7
Скачать торрент
Скачать торрент
Описание торрента

СообщениеДобавлено: 27 июл 2013 

Трое из Простоквашино. Трилогия.
(1978-1984)
BDRip-AVC 1080p от FREEISLAND




Информация о фильме
Название: Трое из Простоквашино
Год выхода: 1978-1984
Жанр: семейный, мультфильм
Режиссер: Владимир Попов
Роли озвучивали: Мария Виноградова, Олег Табаков, Лев Дуров, Борис Новиков, Герман Качин, Валентина Талызина

О фильме:
Трилогия о приключениях Дяди Федора, а также его родителей, кота Матроскина, пса Шарика и почтальона Печкина.
1. Трое из Простоквашино (1978г.)
2. Каникулы в Простоквашино (1980г.)
3. Зима в Простоквашино (1984г.)

Страна: СССР
Выпущено: Союзмультфильм
Продолжительность: 51 м. 28 с.
Перевод: Не требуется
Навигация по сериям: присутствует

Файл
Качество: BDRip-AVC 1080p
Исходник: Blu-ray 1080i
Контейнер: MKV
Видео кодек: x264
Аудио кодек: AC3
Видео: AVC at 5630 Кбит/сек, 1428 x 1080 (1.322) at 25.000 fps
Аудио: Русский AC-3 at 448 Кбит/сек, 6 канала(ов), 48,0 КГц

Общее
Уникальный идентификатор : 249176170430859643692951310858172686023 (0xBB7595B5D9781A179C7464757D8ADEC7)
Полное имя : Трое из Простоквашино (1978-1984) BDRip-AVC 1080p.mkv
Формат : Matroska
Размер файла : 2,19 Гбайт
Продолжительность : 51 м.
Общий поток : 6083 Кбит/сек
Название фильма : релиз от FREEISLAND.ORG
Дата кодирования : UTC 2011-02-27 08:52:59
Программа кодирования : mkvmerge v3.4.0 ('Rapunzel') сборка от May 15 2010 09:38:20
Библиотека кодирования : libebml v0.8.0 + libmatroska v0.9.0

Видео
Идентификатор : 1
Формат : AVC
Формат/Информация : Advanced Video Codec
Профиль формата : High@L5.1
Параметр CABAC формата : Да
Параметр ReFrames формата : 16 кадры
Идентификатор кодека : V_MPEG4/ISO/AVC
Продолжительность : 51 м.
Битрейт : 5630 Кбит/сек
Ширина : 1428 пикс.
Высота : 1080 пикс.
Соотношение сторон : 4:3
Частота кадров : 25,000 кадр/сек
Цветовое пространство : YUV
Подвыборка цветности : 4:2:0
Битовая глубина : 8 бит
Тип развёртки : Прогрессивная
Бит/(Пиксели*Кадры) : 0.146
Размер потока : 1,98 Гбайт (91%)
Библиотека кодирования : x264 core 114 r1913 5fd3dce
Настройки программы : cabac=1 / ref=16 / deblock=1:1:1 / analyse=0x3:0x133 / me=umh / subme=10 / psy=1 / psy_rd=1.00:0.00 / mixed_ref=1 / me_range=64 / chroma_me=1 / trellis=2 / 8x8dct=1 / cqm=0 / deadzone=21,11 / fast_pskip=0 / chroma_qp_offset=-2 / threads=12 / sliced_threads=0 / nr=0 / decimate=1 / interlaced=0 / constrained_intra=0 / bframes=11 / b_pyramid=2 / b_adapt=2 / b_bias=0 / direct=2 / weightb=1 / open_gop=0 / weightp=2 / keyint=250 / keyint_min=25 / scenecut=40 / intra_refresh=0 / rc=2pass / mbtree=0 / bitrate=5630 / ratetol=1.0 / qcomp=1.00 / qpmin=2 / qpmax=48 / qpstep=4 / cplxblur=20.0 / qblur=0.5 / ip_ratio=1.40 / pb_ratio=1.30 / aq=1:1.00
Основные цвета : BT.709-5, BT.1361, IEC 61966-2-4, SMPTE RP177
Характеристики трансфера : BT.709-5, BT.1361
Коэффициенты матрицы : BT.709-5, BT.1361, IEC 61966-2-4 709, SMPTE RP177

Аудио
Идентификатор : 2
Формат : AC-3
Формат/Информация : Audio Coding 3
Расширение режима : CM (complete main)
Идентификатор кодека : A_AC3
Продолжительность : 51 м.
Вид битрейта : Постоянный
Битрейт : 448 Кбит/сек
Канал(ы) : 6 канала(ов)
Расположение каналов : Front: L C R, Side: L R, LFE
Частота : 48,0 КГц
Битовая глубина : 16 бит
Метод сжатия : С потерями
Размер потока : 165 Мбайт (7%)
Язык : Russian

Меню
00:00:00.000 : ru: «ТРОЕ ИЗ ПРОСТОКВАШИНО»
00:17:46.840 : ru: «КАНИКУЛЫ В ПРОСТОКВАШИНО»
00:35:45.720 : ru: «ЗИМА В ПРОСТОКВАШИНО»












Релиз от:



   Похожие торренты   Торрент   Размер 
В этой теме нет новых непрочитанных сообщений. Трое из Простоквашино [Трилогия] (1978-1984) DVDRip от MediaClub | КПК

701 | 35

232.77 МБ

В этой теме нет новых непрочитанных сообщений. Трое из Простоквашино (1978-1984) BDRip 720p

2127 | 88

1.31 ГБ

В этой теме нет новых непрочитанных сообщений. Трое из Простоквашино + Каникулы в Простоквашино + Зима в Простоквашино + Бобик в гостях у Барбоса + Приключения Васи Куролесова (1977-1984) BDRip от HELLYWOOD

1093 | 110

1.52 ГБ

В этой теме нет новых непрочитанных сообщений. Трое из Простоквашино. Сборник мультфильмов (1978-1984) BDRip-AVC | iPad

140 | 13

2.19 ГБ

В этой теме нет новых непрочитанных сообщений. Трое из Простоквашино. Сборник мультфильмов (1978-1984) BDRip 1080 от HDReactor

65 | 8

4.37 ГБ

В этой теме нет новых непрочитанных сообщений. Трое из Простоквашино (1978-1984) DVDRip AVC

188 | 8

1.07 ГБ

В этой теме нет новых непрочитанных сообщений. Трое из Простоквашино (1978-1984) DVDRip-AVC | КПК

242 | 6

226 МБ




Вы не можете начинать темы
Вы не можете отвечать на сообщения
Вы не можете редактировать свои сообщения
Вы не можете удалять свои сообщения
Вы не можете добавлять вложения

Перейти:  
Для Мосгорсуда, Роскомнадзора и рекламодателей: mosgorsud-torrent[собачка]yandex.ru
 Вход
ppkBB3cker v.2 © 2008-2014 @ PPK
[ Time : 0.035s | 15 Queries | GZIP : Off ]

Торрент трекер RUTOR.IN, Не можете зайти на rutor.org? Какой новый адрес рутор? Какое зеркало рутор? Не работает rutor.org и зеркала? Тогда наш торрент специально для вас. Rutor.in неофициальное зеркало rutor. В случае если у Вас заблокирован rutor или вдруг Вы не можете на него зайти, то Вы без труда сможете скачать бесплатно и без рекламы последние новинки кино, игр, сериалов и прочего у нас, на Rutor.in. Не нужно использовать прокси, чтобы зайти на рутор, достаточно воспользоваться нашим ресурсом. Все новые фильмы, игры, сериалы, книги и музыка за 2013 и 2014 годы через торрент бесплатно. Скачивайте фильмы в хорошем качестве, игры для пк, xbox, playstation без регистрации. У нас вы найдете новые Зарубежные сериалы и Русские сериалы 2013, 2014, 2015 годов. Оставайтесь с нами, качайте любимые фильмы, игры, сериалы, книги и музыку.
cron