img image001 image001 image001 image001 image001 image001 image001 image001 image001 image001 image001 image001 image001 image001 image001

Planets Sun Sun Sun
Статистика раздачи
Автор: Снежана | Размер: 4.37 ГБ | Добавлен: 27 июл 2013
Раздают: 3    Качают: 1
Скачать торрент
Скачать торрент
Описание торрента

СообщениеДобавлено: 27 июл 2013 

#77

Информация о фильме
Название: Охотники на драконов
Оригинальное название: Chasseurs de dragons
Год выхода: 2008
Жанр: мультфильм, фэнтези, приключения, семейный
Режиссер: Гийом Ивернель, Артур Квак
В ролях: Венсан Линдон, Форест Уитакер, Мэри Мэтилин Маусер, Патрик Тимсит, Филипп Наон, Аманда Леар, Мари Дрион, Джереми Превост, Елиас Элиот, Жан-Марк Лентретьен

О фильме:
Этот прекрасный и затерянный мир — мириады маленьких солнечных островов, парящих в пространстве и соединенных между собой волшебными мостами. Жители этой доброй вселенной уже давно позабыли правило: «Съешь врага первым или он съест тебя». До тех пор, пока в этот мир не вторглись ужасные и ненасытные существа — Драконы!

Маленькая Зоуи взялась помочь своему дядюшке Лорду Арнольду избавить свой народ от злобных чудищ. Она, как ей казалось, нашла отличных помощников — отважных охотников на драконов, настоящих героев Гвиздо и Лин-Чу. На самом деле хитрый Гвиздо просто позарился на денежки Лорда Арнольда, и не стал разубеждать девчушку в своих способностях, чтобы оставаться рядом. Команда отправляется в очень опасное путешествие до самого края Вселенной, где обитает самый кровожадный монстр на Земле — ужасающий «Пожиратель».

Страна: см. кинопоиск
Продолжительность: 01:21:59
Перевод: Дублированный

Файл
Кодек: Н264
Качество: BDRip 720p
Видео: 1280x720 ,6290 Кбит/сек,23,976 кадр/сек,0.285bit/pixel
Звук:
АС-3,448 Кбит/сек,6 канала(ов),48,0 КГц
АС-3,448 Кбит/сек,6 канала(ов),48,0 КГц
АС-3,448 Кбит/сек,6 канала(ов),48,0 КГц
Субтитры: Русские(сам делал,ASS),английские(VobSub)

Семпл
Уникальный идентификатор : 207697266557371364025357224891980268744 (0x9C4109DB5583EA169619BD7F06AD44C8)
Полное имя : D:торрентOhotniki.Na.Drakonov.2008.х264.RUS.BDRip.720р.mkv
Формат : Matroska
Размер файла : 4,37 Гбайт
Продолжительность : 1 ч. 21 м.
Общий поток : 7636 Кбит/сек
Дата кодирования : UTC 2011-03-04 11:35:17
Программа кодирования : mkvmerge v4.4.0 ('Die Wiederkehr') сборка от Oct 31 2010 21:52:48
Библиотека кодирования : libebml v1.0.0 + libmatroska v1.0.0

Видео
Идентификатор : 1
Формат : AVC
Формат/Информация : Advanced Video Codec
Профиль формата : High@L4.1
Параметр CABAC формата : Да
Параметр ReFrames формата : 12 кадры
Параметры GOP формата : M=1, N=7
Режим смешивания : Header stripping
Идентификатор кодека : V_MPEG4/ISO/AVC
Продолжительность : 1 ч. 21 м.
Битрейт : 6290 Кбит/сек
Ширина : 1280 пикс.
Высота : 720 пикс.
Соотношение сторон : 16:9
Частота кадров : 23,976 кадр/сек
Цветовое пространство : YUV
Подвыборка цветности : 4:2:0
Битовая глубина : 8 бит
Тип развёртки : Прогрессивная
Бит/(Пиксели*Кадры) : 0.285
Размер потока : 3,52 Гбайт (80%)
Заголовок : Freeisland.org
Библиотека кодирования : x264 core 114 r1913 5fd3dce
Настройки программы : cabac=1 / ref=12 / deblock=1:1:1 / analyse=0x3:0x113 / me=umh / subme=7 / psy=1 / psy_rd=0.40:0.00 / mixed_ref=1 / me_range=32 / chroma_me=1 / trellis=1 / 8x8dct=1 / cqm=0 / deadzone=21,11 / fast_pskip=0 / chroma_qp_offset=-2 / threads=6 / sliced_threads=0 / nr=0 / decimate=1 / interlaced=0 / constrained_intra=0 / bframes=6 / b_pyramid=2 / b_adapt=2 / b_bias=0 / direct=3 / weightb=1 / open_gop=0 / weightp=2 / keyint=250 / keyint_min=23 / scenecut=40 / intra_refresh=0 / rc_lookahead=50 / rc=2pass / mbtree=1 / bitrate=6290 / ratetol=1.0 / qcomp=0.60 / qpmin=0 / qpmax=69 / qpstep=4 / cplxblur=20.0 / qblur=0.5 / ip_ratio=1.40 / aq=1:0.60
Язык : English

Аудио #1
Идентификатор : 2
Формат : AC-3
Формат/Информация : Audio Coding 3
Расширение режима : CM (complete main)
Режим смешивания : Header stripping
Идентификатор кодека : A_AC3
Продолжительность : 1 ч. 21 м.
Вид битрейта : Постоянный
Битрейт : 448 Кбит/сек
Канал(ы) : 6 канала(ов)
Расположение каналов : Front: L C R, Side: L R, LFE
Частота : 48,0 КГц
Битовая глубина : 16 бит
Метод сжатия : С потерями
Размер потока : 263 Мбайт (6%)
Язык : Russian

Аудио #2
Идентификатор : 3
Формат : AC-3
Формат/Информация : Audio Coding 3
Расширение режима : CM (complete main)
Режим смешивания : Header stripping
Идентификатор кодека : A_AC3
Продолжительность : 1 ч. 21 м.
Вид битрейта : Постоянный
Битрейт : 448 Кбит/сек
Канал(ы) : 6 канала(ов)
Расположение каналов : Front: L C R, Side: L R, LFE
Частота : 48,0 КГц
Битовая глубина : 16 бит
Метод сжатия : С потерями
Размер потока : 263 Мбайт (6%)
Язык : French

Аудио #3
Идентификатор : 4
Формат : AC-3
Формат/Информация : Audio Coding 3
Расширение режима : CM (complete main)
Режим смешивания : Header stripping
Идентификатор кодека : A_AC3
Продолжительность : 1 ч. 21 м.
Вид битрейта : Постоянный
Битрейт : 448 Кбит/сек
Канал(ы) : 6 канала(ов)
Расположение каналов : Front: L C R, Side: L R, LFE
Частота : 48,0 КГц
Битовая глубина : 16 бит
Метод сжатия : С потерями
Размер потока : 263 Мбайт (6%)
Язык : English

Текст #1
Идентификатор : 5
Формат : ASS
Идентификатор кодека : S_TEXT/ASS
Идентификатор кодека/Информация : Advanced Sub Station Alpha
Метод сжатия : Без потерь
Язык : Russian

Текст #2
Идентификатор : 6
Формат : VobSub
Режим смешивания : zlib
Идентификатор кодека : S_VOBSUB
Идентификатор кодека/Информация : The same subtitle format used on DVDs
Язык : English

Меню
00:00:00.000 : en:00:00:00.000
00:03:54.025 : en:00:03:54.025
00:08:15.953 : en:00:08:15.953
00:15:31.722 : en:00:15:31.722
00:18:16.970 : en:00:18:16.970
00:25:01.500 : en:00:25:01.500
00:32:37.872 : en:00:32:37.872
00:39:18.356 : en:00:39:18.356
00:47:38.981 : en:00:47:38.981
01:00:52.899 : en:01:00:52.899
01:10:00.905 : en:01:10:00.905
01:16:01.181 : en:01:16:01.181



Релиз от:



   Похожие торренты   Торрент   Размер 
В этой теме нет новых непрочитанных сообщений. Охотники На Драконов / Chasseurs de Dragons (2008) BDRip [720p] от HQ-ViDEO.

6 | 2

4.37 ГБ

В этой теме нет новых непрочитанных сообщений. Охотники на драконов / Dragon Hunters / Chasseurs de dragons (2008) BDRip 720p от ExKinoRay

40 | 7

1.07 ГБ

В этой теме нет новых непрочитанных сообщений. Охотники на драконов / Chasseurs de dragons (2008) BDRip 720p от Leonardo and Scarabey | Лицензия

161 | 23

2.73 ГБ

В этой теме нет новых непрочитанных сообщений. Охотники на драконов / Chasseurs de dragons (2008) BDRip-AVC | iPad

23 | 4

1.86 ГБ

В этой теме нет новых непрочитанных сообщений. Охотники на драконов / Chasseurs de dragons (2008) BDRip от ExKinoRay

3 | 5

1.4 ГБ

В этой теме нет новых непрочитанных сообщений. Охотники на драконов / Chasseurs de dragons (2008) BDRip 1080p

74 | 5

4.37 ГБ

В этой теме нет новых непрочитанных сообщений. Охотники на драконов / Chasseurs de dragons (2008) BDRip-AVC от HQCLUB

7 | 2

2.18 ГБ




Вы не можете начинать темы
Вы не можете отвечать на сообщения
Вы не можете редактировать свои сообщения
Вы не можете удалять свои сообщения
Вы не можете добавлять вложения

Перейти:  
Для Мосгорсуда, Роскомнадзора и рекламодателей: mosgorsud-torrent[собачка]yandex.ru
 Вход
ppkBB3cker v.2 © 2008-2014 @ PPK
[ Time : 0.036s | 14 Queries | GZIP : Off ]

Торрент трекер RUTOR.IN, Не можете зайти на rutor.org? Какой новый адрес рутор? Какое зеркало рутор? Не работает rutor.org и зеркала? Тогда наш торрент специально для вас. Rutor.in неофициальное зеркало rutor. В случае если у Вас заблокирован rutor или вдруг Вы не можете на него зайти, то Вы без труда сможете скачать бесплатно и без рекламы последние новинки кино, игр, сериалов и прочего у нас, на Rutor.in. Не нужно использовать прокси, чтобы зайти на рутор, достаточно воспользоваться нашим ресурсом. Все новые фильмы, игры, сериалы, книги и музыка за 2013 и 2014 годы через торрент бесплатно. Скачивайте фильмы в хорошем качестве, игры для пк, xbox, playstation без регистрации. У нас вы найдете новые Зарубежные сериалы и Русские сериалы 2013, 2014, 2015 годов. Оставайтесь с нами, качайте любимые фильмы, игры, сериалы, книги и музыку.