img image001 image001 image001 image001 image001 image001 image001 image001 image001 image001 image001 image001 image001 image001 image001

Planets Sun Sun Sun
Статистика раздачи
Автор: Снежана | Размер: 2.19 ГБ | Добавлен: 27 июл 2013
Раздают: 45    Качают: 19
Скачать торрент
Скачать торрент
Описание торрента

СообщениеДобавлено: 27 июл 2013 

#77

Информация о фильме
Название: Уоллес и Громит: Проклятие кролика-оборотня
Оригинальное название: Wallace & Gromit in The Curse of the Were-Rabbit
Год выхода: 2005
Жанр: Мультфильм, пластилиновая анимация
Режиссер: Стив Бокс, Ник Парк
В ролях: Рэйф Файнс, Хелена Бонем Картер, Питер Кэй, Николас Смит, Лиз Смит, Джон Томсон, Марк Гатисс, Джеральдин МакЮэн

О фильме:
Ежегодный конкурс гигантских овощей приближается, и «овощемания» охватила всех соседей Уоллеса и Громита. Два предприимчивых друга решили заработать денег на борьбе с грызунами, воспользовавшись своим изобретением «Анти-Песто». Но внезапно огромное таинственное животное начало терроризировать округу, уничтожая овощи, которые могли претендовать на главный приз конкурса. В отчаянье, пытаясь спасти мероприятие, его организатор леди Тоттингтон обещает царские почести тому, кто поймает зверя и спасет праздник. В засаде сидит чванливый поклонник леди Виктор Квотермэйн, который мечтает убить животное и стать местным героем, а также получить руку Леди Тоттингтон. Поскольку судьба конкурса оказалась под угрозой, Леди Тоттингтон в конечном счете, вынуждена позволить Виктору выследить и убить овощного мародера. Она даже не подозревает, какие страшные последствия для нее и наших двух друзей повлекут за собой истинные намерения Виктора…

Страна: Великобритания
Студия: Aardman Animations
Продолжительность: 01:21:06
Перевод: Русский дубляж + Английская дорожка

Файл
Кодек: х.264
Качество: HDTVRip
Видео: 1024x576 , 25,000 кадр/сек, 3090 Кбит/сек, 0.210bit/pixel
Звук:
Аудио #1: 48 kHz, AC3 Dolby Digital, 3/2 (L,C,R,l,r) + LFE ch, ~384.00 kbps avg(Руc)
Аудио #2: 48 kHz, AC3 Dolby Digital, 3/2 (L,C,R,l,r) + LFE ch, ~384.00 kbps avg(Англ)
Субтитры: Русские (srt)

Семпл
Уникальный идентификатор : 209725172928136541745709171991290155490 (0x9DC7995C3835A430A490ABF053A591E2)
Полное имя : D:торрентWallace.&.Gromit.in.The.Curse.of.the.Were-Rabbit.2005.HDTVRip.mkv
Формат : Matroska
Размер файла : 2,19 Гбайт
Продолжительность : 1 ч. 21 м.
Общий поток : 3860 Кбит/сек
Дата кодирования : UTC 2011-03-10 02:05:22
Программа кодирования : mkvmerge v4.5.0 ('Speed of Light') built on Feb 1 2011 02:10:32
Библиотека кодирования : libebml v1.2.0 + libmatroska v1.1.0

Видео
Идентификатор : 1
Формат : AVC
Формат/Информация : Advanced Video Codec
Профиль формата : High@L4.0
Параметр CABAC формата : Да
Параметр ReFrames формата : 10 кадры
Идентификатор кодека : V_MPEG4/ISO/AVC
Продолжительность : 1 ч. 21 м.
Битрейт : 3090 Кбит/сек
Ширина : 1024 пикс.
Высота : 576 пикс.
Соотношение сторон : 16:9
Частота кадров : 25,000 кадр/сек
Цветовое пространство : YUV
Подвыборка цветности : 4:2:0
Битовая глубина : 8 бит
Тип развёртки : Прогрессивная
Бит/(Пиксели*Кадры) : 0.210
Размер потока : 1,71 Гбайт (78%)
Библиотека кодирования : x264 core 114 r1913 5fd3dce
Настройки программы : cabac=1 / ref=10 / deblock=1:1:1 / analyse=0x3:0x113 / me=umh / subme=7 / psy=1 / psy_rd=0.40:0.00 / mixed_ref=1 / me_range=32 / chroma_me=1 / trellis=1 / 8x8dct=1 / cqm=0 / deadzone=21,11 / fast_pskip=0 / chroma_qp_offset=-2 / threads=6 / sliced_threads=0 / nr=0 / decimate=1 / interlaced=0 / constrained_intra=0 / bframes=6 / b_pyramid=2 / b_adapt=2 / b_bias=0 / direct=3 / weightb=1 / open_gop=0 / weightp=2 / keyint=250 / keyint_min=25 / scenecut=40 / intra_refresh=0 / rc_lookahead=50 / rc=2pass / mbtree=1 / bitrate=3090 / ratetol=1.0 / qcomp=0.60 / qpmin=0 / qpmax=69 / qpstep=4 / cplxblur=20.0 / qblur=0.5 / ip_ratio=1.40 / aq=1:0.60
Язык : English

Аудио #1
Идентификатор : 2
Формат : AC-3
Формат/Информация : Audio Coding 3
Расширение режима : CM (complete main)
Идентификатор кодека : A_AC3
Продолжительность : 1 ч. 21 м.
Вид битрейта : Постоянный
Битрейт : 384 Кбит/сек
Канал(ы) : 6 канала(ов)
Расположение каналов : Front: L C R, Side: L R, LFE
Частота : 48,0 КГц
Битовая глубина : 16 бит
Метод сжатия : С потерями
Размер потока : 223 Мбайт (10%)
Язык : Russian

Аудио #2
Идентификатор : 3
Формат : AC-3
Формат/Информация : Audio Coding 3
Расширение режима : CM (complete main)
Идентификатор кодека : A_AC3
Продолжительность : 1 ч. 21 м.
Вид битрейта : Постоянный
Битрейт : 384 Кбит/сек
Канал(ы) : 6 канала(ов)
Расположение каналов : Front: L C R, Side: L R, LFE
Частота : 48,0 КГц
Битовая глубина : 16 бит
Метод сжатия : С потерями
Размер потока : 223 Мбайт (10%)
Язык : English

Текст
Идентификатор : 4
Формат : UTF-8
Идентификатор кодека : S_TEXT/UTF8
Идентификатор кодека/Информация : UTF-8 Plain Text
Язык : Russian



Релиз от:



   Похожие торренты   Торрент   Размер 
В этой теме нет новых непрочитанных сообщений. Уоллес и Громит: Проклятие кролика-оборотня / Wallace & Gromit in The Curse of the Were-Rabbit (2005) HDTVRip 720p

160 | 6

4.75 ГБ

В этой теме нет новых непрочитанных сообщений. Уоллес и Громит: Хитроумные изобретения / Wallace and Gromit: Cracking Contraptions (2002) TVRip

8 | 4

205.7 МБ

В этой теме нет новых непрочитанных сообщений. Уоллес и Громит: Смертельная выпечка / Wallace & Gromit: A Matter of Loaf and Death (2008) HDRip | 2x2

8 | 3

444.54 МБ

В этой теме нет новых непрочитанных сообщений. Уоллес и Громит: Полная коллекция / Wallace Gromit: The Complete Collection (2008) BDRip-AVC от Тorrent-Хzona

17 | 9

1.73 ГБ

В этой теме нет новых непрочитанных сообщений. Уоллес и Громит (Полная коллекция) / Wallace & Gromit (The Complete Collection) (1989-2008) DVDRip от Files-X

64 | 54

3.9 ГБ

В этой теме нет новых непрочитанных сообщений. Проклятие оборотня / The Curse of the Werewolf (1961) DVDRip от NovaLan

1 | 8

1.47 ГБ

В этой теме нет новых непрочитанных сообщений. Кто подставил кролика Роджера / Who Framed Roger Rabbit (1988) BDRip 1080p от FREEISLAND

193 | 25

7.93 ГБ




Вы не можете начинать темы
Вы не можете отвечать на сообщения
Вы не можете редактировать свои сообщения
Вы не можете удалять свои сообщения
Вы не можете добавлять вложения

Перейти:  
Для Мосгорсуда, Роскомнадзора и рекламодателей: mosgorsud-torrent[собачка]yandex.ru
 Вход
ppkBB3cker v.2 © 2008-2014 @ PPK
[ Time : 0.074s | 17 Queries | GZIP : Off ]
CGP output time : 0.049s | 5 Queries | GZIP : Off

Торрент трекер RUTOR.IN, Не можете зайти на rutor.org? Какой новый адрес рутор? Какое зеркало рутор? Не работает rutor.org и зеркала? Тогда наш торрент специально для вас. Rutor.in неофициальное зеркало rutor. В случае если у Вас заблокирован rutor или вдруг Вы не можете на него зайти, то Вы без труда сможете скачать бесплатно и без рекламы последние новинки кино, игр, сериалов и прочего у нас, на Rutor.in. Не нужно использовать прокси, чтобы зайти на рутор, достаточно воспользоваться нашим ресурсом. Все новые фильмы, игры, сериалы, книги и музыка за 2013 и 2014 годы через торрент бесплатно. Скачивайте фильмы в хорошем качестве, игры для пк, xbox, playstation без регистрации. У нас вы найдете новые Зарубежные сериалы и Русские сериалы 2013, 2014, 2015 годов. Оставайтесь с нами, качайте любимые фильмы, игры, сериалы, книги и музыку.