img image001 image001 image001 image001 image001 image001 image001 image001 image001 image001 image001 image001 image001 image001 image001

Planets Sun Sun Sun
Статистика раздачи
Автор: Снежана | Размер: 563.2 МБ | Добавлен: 27 июл 2013
Раздают: 47    Качают: 8
Скачать торрент
Скачать торрент
Описание торрента

СообщениеДобавлено: 27 июл 2013 

#77
Название: Мегамозг: Кнопка Гибели
Оригинальное название: Megamind: The Button of Doom
Год выпуска: 2011
Жанр: Комедия, семейный
Выпущено: США, DreamWorks Animation
Режиссер: Саймон Дж. Смит
В ролях: Мишель Бельфорте, Хаузер Джордан Александр, Данте Джеймс Хаузер, Деклан Свифт



О фильме: В первый день работы в качестве защитников Метросити, Мегамозг и Прислужник продают гаджеты от своих злых дел в логове. Но когда казалось бы, безобидная кнопка вызывает гигантского робота MEGA-MEGAmind, дуэту придется прибегнуть к своим старым уловкам, чтобы навести порядок в городе

Качество: BDRip (720p)
Видео: MPEG-4 AVC, 4500 Кбит/с, 1280x720
Аудио: АС3, 2 ch, 384 Кбит/с
Размер: 563.20 МБ
Продолжительность: 00:16:05
Перевод: Дублированное [VO-production & Filiza Studio]

Сэмпл
Format : Matroska
File size : 563 MiB
Duration : 16mn 6s
Overall bit rate : 4 888 Kbps
Encoded date : UTC 2011-03-14 17:23:34
Writing application : mkvmerge v2.4.2 ('Oh My God') built on Jan 18 2009 17:30:28
Writing library : libebml v0.7.7 + libmatroska v0.8.1
Video #1
ID : 1
Format : AVC
Format/Info : Advanced Video Codec
Format profile : High@L3.1
Format settings, CABAC : Yes
Format settings, ReFrames : 3 frames
Muxing mode : Container profile=Unknown@3.1
Codec ID : V_MPEG4/ISO/AVC
Duration : 16mn 5s
Bit rate : 4 406 Kbps
Nominal bit rate : 4 500 Kbps
Width : 1 280 pixels
Height : 720 pixels
Display aspect ratio : 16:9
Frame rate : 23.976 fps
Resolution : 24 bits
Colorimetry : 4:2:0
Scan type : Progressive
Bits/(Pixel*Frame) : 0.199
Stream size : 507 MiB (90%)
Writing library : x264 core 65 r999kMod cc51047
Encoding settings : cabac=1 / ref=3 / deblock=1:0:0 / analyse=0x3:0x133 / me=umh / subme=6 / psy_rd=1.0:0.0 / mixed_ref=1 / me_range=16 / chroma_me=1 / trellis=1 / 8x8dct=1 / cqm=0 / deadzone=21,11 / chroma_qp_offset=-2 / threads=4 / thread_queue=4 / nr=0 / decimate=1 / mbaff=0 / bframes=3 / b_pyramid=1 / b_adapt=1 / b_bias=0 / direct=3 / wpredb=1 / keyint=250 / keyint_min=25 / scenecut=40(pre) / rc=2pass / bitrate=4500 / ratetol=1.0 / qcomp=0.60 / qpmin=10 / qpmax=51 / qpstep=4 / cplxblur=20.0 / qblur=0.5 / ip_ratio=1.40 / pb_ratio=1.30 / aq=1:1.00
Audio #2
ID : 2
Format : AC-3
Format/Info : Audio Coding 3
Codec ID : A_AC3
Duration : 16mn 6s
Bit rate mode : Constant
Bit rate : 384 Kbps
Channel(s) : 2 channels
Channel positions : L R
Sampling rate : 48.0 KHz
Stream size : 44.2 MiB (8%)
Title : VO-production & Filiza Studio
Language : Russian




   Похожие торренты   Торрент   Размер 
В этой теме нет новых непрочитанных сообщений. Мегамозг: Кнопка Гибели / Megamind: The Button of Doom (2011) BDRip 1080p | Дубляж

92 | 12

1.76 ГБ

В этой теме нет новых непрочитанных сообщений. Мегамозг: Кнопка Гибели / Megamind: The Button of Doom (2011) BDRip 720

5 | 4

766.14 МБ

В этой теме нет новых непрочитанных сообщений. Мегамозг: Кнопка Гибели / Megamind: The Button of Doom (2011) BDRip-AVC от NovaLan

3 | 4

350.94 МБ

В этой теме нет новых непрочитанных сообщений. Мегамозг: Кнопка Гибели / Megamind: The Button of Doom (2011) BDRip 720р

0 | 83

766.14 МБ

В этой теме нет новых непрочитанных сообщений. Мегамозг: Кнопка Гибели / Megamind: The Button of Doom (2011) HDRip

3 | 2

251.62 МБ

В этой теме нет новых непрочитанных сообщений. Мегамозг: Кнопка Гибели / Megamind: The Button of Doom (2011) HDRip от HQRips

195 | 4

330.4 МБ

В этой теме нет новых непрочитанных сообщений. Мегамозг: Кнопка Гибели / Megamind: The Button of Doom (2011) HDRip | VO-production

3 | 2

251.62 МБ




Вы не можете начинать темы
Вы не можете отвечать на сообщения
Вы не можете редактировать свои сообщения
Вы не можете удалять свои сообщения
Вы не можете добавлять вложения

Перейти:  
Для Мосгорсуда, Роскомнадзора и рекламодателей: mosgorsud-torrent[собачка]yandex.ru
 Вход
ppkBB3cker v.2 © 2008-2014 @ PPK
[ Time : 0.029s | 15 Queries | GZIP : Off ]

cron