img image001 image001 image001 image001 image001 image001 image001 image001 image001 image001 image001 image001 image001 image001 image001

Planets Sun Sun Sun
Статистика раздачи
Автор: Снежана | Размер: 4.38 ГБ | Добавлен: 27 июл 2013
Раздают: 4    Качают: 3
Скачать торрент
Скачать торрент
Описание торрента

СообщениеДобавлено: 27 июл 2013 

[font='Courier New']Рапунцель: Запутанная история[/font]

Tangled




Год выпуска:2010
Страна:США, Walt Disney Pictures
Жанр: Мультфильм, Мюзикл, Фэнтези, Мелодрама, Комедия, Семейный
Продолжительность: 01:40:17
Перевод:Профессиональный (полное дублирование)

Режиссер:Натан Грено, Байрон Ховард
Продюссер:Рой Конли, Глен Кин, Джон Лассетер

Дата мировой премьеры: 24 ноября 2010
Дата российской премьеры: 25 ноября 2010, «WDSSPR»
Бюджет: $260 000 000
Сборы в мире: $551 475 983

Роли озвучивали: Мэнди Мур, Рон Перлман, Захари Левай, Донна Мерфи, М.К.Гейни, Джефри Тэмбор, Брэд Гэррет, Пол Ф.Томпкинс, Ричард Кил, Делани Роуз Стейн
Роли дублировали:Виктория Дайнеко,Андрей Бирин,Григорий Антипенко,Мария Кац,Григорий Перель

Описание:Обаятельный разбойник Флинн путешествует по жизни с легкостью, лишь потому, что он красив, болтлив и удачлив. И казалось, фортуна всегда на его стороне, пока однажды он не выбирает высокую башню в густой чаще леса в качестве «спокойного» убежища. Флинн оказывается связанным по рукам и ногам юной красавицей по имени Рапунцель. Если вы думаете, что самое интересное в ней — это 21 метр волшебных золотистых волос, то вы заблуждаетесь! Запертая в башне и отчаянно ищущая приключений, Рапунцель решает использовать Флинна в качестве билета в большой мир. Сначала комичное похищение, затем невинный шантаж — и вот наши герои на воле. Вместе с главными героями в авантюрное путешествие отправятся бравый конь-ищейка Максимус, ручной хамелеон и шайка сумасбродных разбойников.

Качество:BDRip 720p
Формат: MKV
Видео кодек: H.264
Аудио кодек:АС-3
Видео: English, 5088 Кбит/сек, 1280*720 (16:9), в 23,976 кадр/сек, AVC
Аудио:Russian, 448 Кбит/сек, 48,0 КГц, 16 бит, 6 канала(ов), AC-3|дубляж
Аудио:Ukrainian,384 Кбит/сек, 48,0 КГц, 16 бит, 6 канала(ов), AC-3|дубляж
Аудио:English,320 Кбит/сек, 48,0 КГц, 16 бит, 6 канала(ов), AC-3|оригинал
Субтитры:Russian,Ukrainian,English-VobSub



Общее
Уникальный идентификатор : 203110859057756905584733593628500704553 (0x98CDBA822F2F06D1874EA62A70063D29)
Полное имя : E:торрентTangled (2010) BDRip 720p.mkv
Формат : Matroska
Размер файла : 4,38 Гбайт
Продолжительность : 1 ч. 40 м.
Общий поток : 6251 Кбит/сек
Дата кодирования : UTC 2011-03-20 03:09:50
Программа кодирования : mkvmerge v4.6.0 ('Still Crazy After All These Years') built on Mar 10 2011 02:50:32
Библиотека кодирования : libebml v1.2.0 + libmatroska v1.1.0

Видео
Идентификатор : 1
Формат : AVC
Формат/Информация : Advanced Video Codec
Профиль формата : High@L5.0
Параметр CABAC формата : Да
Параметр ReFrames формата : 10 кадры
Идентификатор кодека : V_MPEG4/ISO/AVC
Продолжительность : 1 ч. 40 м.
Битрейт : 5088 Кбит/сек
Ширина : 1280 пикс.
Высота : 720 пикс.
Соотношение сторон : 16:9
Частота кадров : 23,976 кадр/сек
Цветовое пространство : YUV
Подвыборка цветности : 4:2:0
Битовая глубина : 8 бит
Тип развёртки : Прогрессивная
Бит/(Пиксели*Кадры) : 0.230
Размер потока : 3,48 Гбайт (80%)
Заголовок : Freeisland.org
Библиотека кодирования : x264 core 114 r1913 5fd3dce
Настройки программы : cabac=1 / ref=10 / deblock=1:1:1 / analyse=0x3:0x133 / me=umh / subme=7 / psy=1 / psy_rd=1.00:0.15 / mixed_ref=1 / me_range=32 / chroma_me=1 / trellis=2 / 8x8dct=1 / cqm=0 / deadzone=21,11 / fast_pskip=0 / chroma_qp_offset=-3 / threads=6 / sliced_threads=0 / nr=0 / decimate=1 / interlaced=0 / constrained_intra=0 / bframes=6 / b_pyramid=2 / b_adapt=1 / b_bias=0 / direct=1 / weightb=1 / open_gop=0 / weightp=2 / keyint=250 / keyint_min=24 / scenecut=40 / intra_refresh=0 / rc_lookahead=40 / rc=2pass / mbtree=1 / bitrate=5088 / ratetol=1.0 / qcomp=0.60 / qpmin=5 / qpmax=51 / qpstep=4 / cplxblur=20.0 / qblur=0.5 / ip_ratio=1.40 / aq=1:1.00
Язык : English

Аудио #1
Идентификатор : 2
Формат : AC-3
Формат/Информация : Audio Coding 3
Расширение режима : CM (complete main)
Идентификатор кодека : A_AC3
Продолжительность : 1 ч. 40 м.
Вид битрейта : Постоянный
Битрейт : 448 Кбит/сек
Канал(ы) : 6 канала(ов)
Расположение каналов : Front: L C R, Side: L R, LFE
Частота : 48,0 КГц
Битовая глубина : 16 бит
Метод сжатия : С потерями
Размер потока : 321 Мбайт (7%)
Язык : Russian

Аудио #2
Идентификатор : 3
Формат : AC-3
Формат/Информация : Audio Coding 3
Расширение режима : CM (complete main)
Идентификатор кодека : A_AC3
Продолжительность : 1 ч. 40 м.
Вид битрейта : Постоянный
Битрейт : 384 Кбит/сек
Канал(ы) : 6 канала(ов)
Расположение каналов : Front: L C R, Side: L R, LFE
Частота : 48,0 КГц
Битовая глубина : 16 бит
Метод сжатия : С потерями
Размер потока : 275 Мбайт (6%)
Язык : Ukrainian

Аудио #3
Идентификатор : 4
Формат : AC-3
Формат/Информация : Audio Coding 3
Расширение режима : CM (complete main)
Идентификатор кодека : A_AC3
Продолжительность : 1 ч. 40 м.
Вид битрейта : Постоянный
Битрейт : 320 Кбит/сек
Канал(ы) : 6 канала(ов)
Расположение каналов : Front: L C R, Side: L R, LFE
Частота : 48,0 КГц
Битовая глубина : 16 бит
Метод сжатия : С потерями
Размер потока : 230 Мбайт (5%)
Язык : English

Текст #1
Идентификатор : 5
Формат : VobSub
Режим смешивания : zlib
Идентификатор кодека : S_VOBSUB
Идентификатор кодека/Информация : The same subtitle format used on DVDs
Язык : Russian

Текст #2
Идентификатор : 6
Формат : VobSub
Режим смешивания : zlib
Идентификатор кодека : S_VOBSUB
Идентификатор кодека/Информация : The same subtitle format used on DVDs
Язык : Ukrainian

Текст #3
Идентификатор : 7
Формат : VobSub
Режим смешивания : zlib
Идентификатор кодека : S_VOBSUB
Идентификатор кодека/Информация : The same subtitle format used on DVDs
Язык : English

Меню
00:00:00.000 : en:00:00:00.000
00:08:21.084 : en:00:08:21.084
00:15:43.401 : en:00:15:43.401
00:24:41.355 : en:00:24:41.355
00:34:42.288 : en:00:34:42.288
00:42:31.007 : en:00:42:31.007
00:50:26.065 : en:00:50:26.065
00:59:22.058 : en:00:59:22.058
01:10:35.773 : en:01:10:35.773
01:19:23.550 : en:01:19:23.550
01:25:22.159 : en:01:25:22.159
01:31:21.017 : en:01:31:21.017





Релиз от:



   Похожие торренты   Торрент   Размер 
В этой теме нет новых непрочитанных сообщений. Рапунцель: Запутанная история / Tangled (2010) Blu-Ray Remux 1080p от FREEISLAND

14 | 7

19.05 ГБ

В этой теме нет новых непрочитанных сообщений. Рапунцель: Запутанная история / Tangled (2010) BDRip 720p | 60 fps | D, P2, A

В этой теме нет новых непрочитанных сообщений. Рапунцель: Запутанная история / Tangled (2010) 720p BDRip от HQCLUB

106 | 4

7.66 ГБ

В этой теме нет новых непрочитанных сообщений. Рапунцель: Запутанная история / Tangled (2010) BDRip [720p] от HQ-ViDEO

195 | 5

4.68 ГБ

В этой теме нет новых непрочитанных сообщений. Рапунцель: Запутанная история 3д / Tangled 3D (2010) BDrip 720p | Анаглиф

6 | 4

7.52 ГБ

В этой теме нет новых непрочитанных сообщений. Рапунцель: Запутанная история / Tangled (2010) BDRip 720p от Leonardo and Scarabey | Лицензия

2662 | 157

2.78 ГБ

В этой теме нет новых непрочитанных сообщений. Рапунцель: Запутанная история / Tangled (2010) BDRip 1080p

700 | 37

4.37 ГБ




Вы не можете начинать темы
Вы не можете отвечать на сообщения
Вы не можете редактировать свои сообщения
Вы не можете удалять свои сообщения
Вы не можете добавлять вложения

Перейти:  
Для Мосгорсуда, Роскомнадзора и рекламодателей: mosgorsud-torrent[собачка]yandex.ru
 Вход
ppkBB3cker v.2 © 2008-2014 @ PPK
[ Time : 0.035s | 15 Queries | GZIP : Off ]

Торрент трекер RUTOR.IN, Не можете зайти на rutor.org? Какой новый адрес рутор? Какое зеркало рутор? Не работает rutor.org и зеркала? Тогда наш торрент специально для вас. Rutor.in неофициальное зеркало rutor. В случае если у Вас заблокирован rutor или вдруг Вы не можете на него зайти, то Вы без труда сможете скачать бесплатно и без рекламы последние новинки кино, игр, сериалов и прочего у нас, на Rutor.in. Не нужно использовать прокси, чтобы зайти на рутор, достаточно воспользоваться нашим ресурсом. Все новые фильмы, игры, сериалы, книги и музыка за 2013 и 2014 годы через торрент бесплатно. Скачивайте фильмы в хорошем качестве, игры для пк, xbox, playstation без регистрации. У нас вы найдете новые Зарубежные сериалы и Русские сериалы 2013, 2014, 2015 годов. Оставайтесь с нами, качайте любимые фильмы, игры, сериалы, книги и музыку.
cron