img image001 image001 image001 image001 image001 image001 image001 image001 image001 image001 image001 image001 image001 image001 image001

Planets Sun Sun Sun
Статистика раздачи
Автор: Снежана | Размер: 4.68 ГБ | Добавлен: 27 июл 2013
Раздают: 195    Качают: 5
Скачать торрент
Скачать торрент
Описание торрента

СообщениеДобавлено: 27 июл 2013 

Рапунцель: Запутанная история / Tangled (2010) BDRip [720p]

Релиз от HQ-ViDEO




Жанр: Мультфильм, Мюзикл, Фэнтези, Мелодрама, Комедия, Семейный

Год: 2010
Студия: Walt Disney Animation Studios
Режиссер: Натан Грено /Nathan Greno/, Байрон Ховард /Byron Howard/

В ролях: Мэнди Мур /Mandy Moore/, Захари Левай /Zachary Levi/, Донна Мерфи /Donna Murphy/, Рон Перлман /Ron Perlman/, М. К. Гейни /M.C. Gainey/, Джефри Тэмбор /Jeffrey Tambor/, Брэд Гэррет /Brad Garrett/, Пол Ф. Томпкинс /Paul F. Tompkins/, Ричард Кил /Richard Kiel/, Делани Роуз Стейн /Delaney Rose Stein/

Описание: Обаятельный разбойник Флинн путешествует по жизни с легкостью, лишь потому, что он красив, болтлив и удачлив. И казалось, фортуна всегда на его стороне, пока однажды он не выбирает высокую башню в густой чаще леса в качестве «спокойного» убежища. Флинн оказывается связанным по рукам и ногам юной красавицей по имени Рапунцель.

Если вы думаете, что самое интересное в ней — это 21 метр волшебных золотистых волос, то вы заблуждаетесь! Запертая в башне и отчаянно ищущая приключений, Рапунцель решает использовать Флинна в качестве билета в большой мир. Сначала комичное похищение, затем невинный шантаж — и вот наши герои на воле. Вместе с главными героями в авантюрное путешествие отправятся бравый конь-ищейка Максимус, ручной хамелеон и шайка сумасбродных разбойников...

********** Tangled (2010) ***********

Release Date: 20.03.2011

Runtime .......: 01:40:57 min
Video Format ..: MKV, H.264 codec
Video Bitrate .: 5 173 kbps
Bits per Pixel : 0.234 bit/pixel
Resolution ....: 1 280 x 720
Aspect Ratio ..: 16:9
Framerate .....: 23.976 fps

Audio First....: Russian AC3 Dolby Digital; 448.00 kbps; 5.1 Ch; 48 kHz
Audio Second...: English AC3 Dolby Digital; 448.00 kbps; 5.1 Ch; 48 kHz
Subtitle.......: Russian, Ukrainian, English.

File Size .....: 4.37 GB
Source.........: Blu-ray Disc




General
Complete name : Rapuntsel.Zaputannaya.Istoriya.2010.DUAL.BDRip.720 p.h264.AC3.-HQ-ViDEO.mkv
Format : Matroska
File size : 4.37 GiB
Duration : 1h 40mn
Overall bit rate : 6 193 Kbps
Movie name : Tangled (2010)
Encoded date : UTC 2011-03-20 11:58:37
Writing application : mkvmerge v3.3.0 ('Language') built on Mar 24 2010 14:59:24
Writing library : libebml v0.8.0 + libmatroska v0.9.0

Video
ID : 1
Format : AVC
Format/Info : Advanced Video Codec
Format profile : High@L4.1
Format settings, CABAC : Yes
Format settings, ReFrames : 6 frames
Codec ID : V_MPEG4/ISO/AVC
Duration : 1h 40mn
Bit rate mode : Variable
Bit rate : 5 173 Kbps
Width : 1 280 pixels
Height : 720 pixels
Display aspect ratio : 16:9
Frame rate : 23.976 fps
Color space : YUV
Chroma subsampling : 4:2:0
Bit depth : 8 bits
Scan type : Progressive
Bits/(Pixel*Frame) : 0.234
Stream size : 3.65 GiB (84%)
Title : Encoded by GYN

Audio #1
ID : 2
Format : AC-3
Format/Info : Audio Coding 3
Mode extension : CM (complete main)
Codec ID : A_AC3
Duration : 1h 40mn
Bit rate mode : Constant
Bit rate : 448 Kbps
Channel(s) : 6 channels
Channel positions : Front: L C R, Side: L R, LFE
Sampling rate : 48.0 KHz
Bit depth : 16 bits
Compression mode : Lossy
Stream size : 324 MiB (7%)
Title : DUB
Language : Russian

Audio #2
ID : 3
Format : AC-3
Format/Info : Audio Coding 3
Mode extension : CM (complete main)
Codec ID : A_AC3
Duration : 1h 40mn
Bit rate mode : Constant
Bit rate : 448 Kbps
Channel(s) : 6 channels
Channel positions : Front: L C R, Side: L R, LFE
Sampling rate : 48.0 KHz
Bit depth : 16 bits
Compression mode : Lossy
Stream size : 324 MiB (7%)
Title : Original
Language : English

Text #1
ID : 4
Format : UTF-8
Codec ID : S_TEXT/UTF8
Codec ID/Info : UTF-8 Plain Text
Language : Russian

Text #2
ID : 5
Format : UTF-8
Codec ID : S_TEXT/UTF8
Codec ID/Info : UTF-8 Plain Text
Language : Ukrainian

Text #3
ID : 6
Format : UTF-8
Codec ID : S_TEXT/UTF8
Codec ID/Info : UTF-8 Plain Text
Language : English

Язык: Русский дублированный + Английская дорожка + Украинский дублированный (448/Отдельно)

Субтитры: Русские, Украинские, Английские



Релиз:
Автор рипа: GYN

ПРИЯТНОГО ПРОСМОТРА!



   Похожие торренты   Торрент   Размер 
В этой теме нет новых непрочитанных сообщений. Рапунцель: Запутанная история / Tangled (2010) BDRip от HQ-ViDEO

3910 | 150

1.46 ГБ

В этой теме нет новых непрочитанных сообщений. Рапунцель: Запутанная история / Tangled (2010) BDRip 1080p | 3D-Video

99 | 15

7.69 ГБ

В этой теме нет новых непрочитанных сообщений. Рапунцель: Запутанная история / Tangled (2010) BDrip 1080p | 3D-Video / Анаглиф

24 | 5

5.55 ГБ

В этой теме нет новых непрочитанных сообщений. Рапунцель: Запутанная история 3D / Tangled 3D (2010) Blu-Ray | 3D Video

2 | 14

41.78 ГБ

В этой теме нет новых непрочитанных сообщений. Рапунцель: Запутанная история / Tangled (2010) BDRip 720p | 60 fps | D, P2, A

В этой теме нет новых непрочитанных сообщений. Рапунцель: Запутанная история / Tangled (2010) 720p BDRip от HQCLUB

106 | 4

7.66 ГБ

В этой теме нет новых непрочитанных сообщений. Рапунцель: Запутанная история 3д / Tangled 3D (2010) BDrip 720p | Анаглиф

6 | 4

7.52 ГБ




Вы не можете начинать темы
Вы не можете отвечать на сообщения
Вы не можете редактировать свои сообщения
Вы не можете удалять свои сообщения
Вы не можете добавлять вложения

Перейти:  
Для Мосгорсуда, Роскомнадзора и рекламодателей: mosgorsud-torrent[собачка]yandex.ru
 Вход
ppkBB3cker v.2 © 2008-2014 @ PPK
[ Time : 0.573s | 14 Queries | GZIP : Off ]

Торрент трекер RUTOR.IN, Не можете зайти на rutor.org? Какой новый адрес рутор? Какое зеркало рутор? Не работает rutor.org и зеркала? Тогда наш торрент специально для вас. Rutor.in неофициальное зеркало rutor. В случае если у Вас заблокирован rutor или вдруг Вы не можете на него зайти, то Вы без труда сможете скачать бесплатно и без рекламы последние новинки кино, игр, сериалов и прочего у нас, на Rutor.in. Не нужно использовать прокси, чтобы зайти на рутор, достаточно воспользоваться нашим ресурсом. Все новые фильмы, игры, сериалы, книги и музыка за 2013 и 2014 годы через торрент бесплатно. Скачивайте фильмы в хорошем качестве, игры для пк, xbox, playstation без регистрации. У нас вы найдете новые Зарубежные сериалы и Русские сериалы 2013, 2014, 2015 годов. Оставайтесь с нами, качайте любимые фильмы, игры, сериалы, книги и музыку.