img image001 image001 image001 image001 image001 image001 image001 image001 image001 image001 image001 image001 image001 image001 image001

Planets Sun Sun Sun
Статистика раздачи
Автор: Снежана | Размер: 4.37 ГБ | Добавлен: 27 июл 2013
Раздают: 36    Качают: 4
Скачать торрент
Скачать торрент
Описание торрента

СообщениеДобавлено: 27 июл 2013 

Анастасия / Anastasia (1997) BDRip [720p]

Релиз от HQ-ViDEO




Жанр: Мультфильм, Мюзикл, Драма, Приключения, Семейный
Год: 1997
Студия: Twentieth Century Fox Film Corporation
Режиссер: Дон Блат /Don Bluth/, Гари Голдман /Gary Goldman/

В ролях: Мег Райан /Meg Ryan/, Джон Кьюсак /John Cusack/, Келси Грэммер /Kelsey Grammer/, Кристофер Ллойд /Christopher Lloyd/, Хэнк Азария /Hank Azaria/, Бернадетт Питерс /Bernadette Peters/, Кирстен Данст /Kirsten Dunst/, Анджела Лэнсбери /Angela Lansbury/, Рик Джонс /Rick Jones/, Андреа Мартин /Andrea Martin/

Описание: Анастасия — дочка последнего русского царя Николая, погубленного зловещим Распутиным. Ей удается спастись, добраться вместе с бабушкой до переполненного вокзала и… потеряться в толпе. Проходит десять лет. Анастасия стала взрослой красавицей и теперь хочет попасть в Париж. Сможет ли царевна осуществить задуманное? Ведь Распутин уже поднялся из своей могилы...

********** Anastasia (1997) ***********

Release Date: 27.03.2011

Runtime .......: 01:34:120 min
Video Format ..: MKV, H.264 codec
Video Bitrate .: 5 611 kbps
Bits per Pixel : 0.339 bit/pixel
Resolution ....: 1 280 x 540
Aspect Ratio ..: 2.35:1
Framerate .....: 23.976 fps

Audio First....: Russian AC3 Dolby Digital; 448.00 kbps; 5.1 Ch; 48 kHz
Audio Second...: English AC3 Dolby Digital; 448.00 kbps; 5.1 Ch; 48 kHz
Subtitle.......: Russian, English.

File Size .....: 4.37 GB
Source.........: Blu-ray Disc




General
Complete name : Anastasiya.1997.DUAL.BDRip.720p.h264.AC3.-HQ-ViDEO.mkv
Format : Matroska
File size : 4.37 GiB
Duration : 1h 34mn
Overall bit rate : 6 639 Kbps
Movie name : Anastasia (1997)
Encoded date : UTC 2011-03-27 11:45:08
Writing application : mkvmerge v3.3.0 ('Language') built on Mar 24 2010 14:59:24
Writing library : libebml v0.8.0 + libmatroska v0.9.0

Video
ID : 1
Format : AVC
Format/Info : Advanced Video Codec
Format profile : High@L4.1
Format settings, CABAC : Yes
Format settings, ReFrames : 6 frames
Codec ID : V_MPEG4/ISO/AVC
Duration : 1h 34mn
Bit rate mode : Variable
Bit rate : 5 611 Kbps
Width : 1 280 pixels
Height : 540 pixels
Display aspect ratio : 2.35:1
Frame rate : 23.976 fps
Color space : YUV
Chroma subsampling : 4:2:0
Bit depth : 8 bits
Scan type : Progressive
Bits/(Pixel*Frame) : 0.339
Stream size : 3.69 GiB (85%)
Title : Encoded by GYN

Audio #1
ID : 2
Format : AC-3
Format/Info : Audio Coding 3
Mode extension : CM (complete main)
Codec ID : A_AC3
Duration : 1h 34mn
Bit rate mode : Constant
Bit rate : 448 Kbps
Channel(s) : 6 channels
Channel positions : Front: L C R, Side: L R, LFE
Sampling rate : 48.0 KHz
Bit depth : 16 bits
Compression mode : Lossy
Stream size : 302 MiB (7%)
Title : DUB
Language : Russian

Audio #2
ID : 3
Format : AC-3
Format/Info : Audio Coding 3
Mode extension : CM (complete main)
Codec ID : A_AC3
Duration : 1h 34mn
Bit rate mode : Constant
Bit rate : 448 Kbps
Channel(s) : 6 channels
Channel positions : Front: L C R, Side: L R, LFE
Sampling rate : 48.0 KHz
Bit depth : 16 bits
Compression mode : Lossy
Stream size : 302 MiB (7%)
Title : Original
Language : English

Text #1
ID : 4
Format : UTF-8
Codec ID : S_TEXT/UTF8
Codec ID/Info : UTF-8 Plain Text
Language : Russian

Text #2
ID : 5
Format : UTF-8
Codec ID : S_TEXT/UTF8
Codec ID/Info : UTF-8 Plain Text
Language : English

Язык: Русский дублированный + Английская дорожка.

Субтитры: Русские, Английские


Релиз:
Автор рипа: GYN

ПРИЯТНОГО ПРОСМОТРА!



   Похожие торренты   Торрент   Размер 
В этой теме нет новых непрочитанных сообщений. Анастасия / Anastasia (1997) BDRip от HQ-ViDEO

228 | 37

1.71 ГБ

В этой теме нет новых непрочитанных сообщений. Анастасия / Anastasia (1997) BDRip 720p

11 | 5

7.02 ГБ

В этой теме нет новых непрочитанных сообщений. Анастасия / Anastasia (1997) BDRip 720p | D, P2

33 | 6

5.28 ГБ

В этой теме нет новых непрочитанных сообщений. Анастасия / Anastasia (1997) BDRip 720p от Freeisland

3 | 3

4.37 ГБ

В этой теме нет новых непрочитанных сообщений. Анастасия / Anastasia (1997) BDRip 1080p

66 | 10

4.37 ГБ

В этой теме нет новых непрочитанных сообщений. Анастасия / Anastasia (1997) BDRip 1080p

22 | 6

8.83 ГБ

В этой теме нет новых непрочитанных сообщений. Анастасия / Anastasia (1997) BDRip от HQCLUB

1233 | 38

1.45 ГБ




Вы не можете начинать темы
Вы не можете отвечать на сообщения
Вы не можете редактировать свои сообщения
Вы не можете удалять свои сообщения
Вы не можете добавлять вложения

Перейти:  
Для Мосгорсуда, Роскомнадзора и рекламодателей: mosgorsud-torrent[собачка]yandex.ru
 Вход
ppkBB3cker v.2 © 2008-2014 @ PPK
[ Time : 0.604s | 14 Queries | GZIP : Off ]

Торрент трекер RUTOR.IN, Не можете зайти на rutor.org? Какой новый адрес рутор? Какое зеркало рутор? Не работает rutor.org и зеркала? Тогда наш торрент специально для вас. Rutor.in неофициальное зеркало rutor. В случае если у Вас заблокирован rutor или вдруг Вы не можете на него зайти, то Вы без труда сможете скачать бесплатно и без рекламы последние новинки кино, игр, сериалов и прочего у нас, на Rutor.in. Не нужно использовать прокси, чтобы зайти на рутор, достаточно воспользоваться нашим ресурсом. Все новые фильмы, игры, сериалы, книги и музыка за 2013 и 2014 годы через торрент бесплатно. Скачивайте фильмы в хорошем качестве, игры для пк, xbox, playstation без регистрации. У нас вы найдете новые Зарубежные сериалы и Русские сериалы 2013, 2014, 2015 годов. Оставайтесь с нами, качайте любимые фильмы, игры, сериалы, книги и музыку.