img image001 image001 image001 image001 image001 image001 image001 image001 image001 image001 image001 image001 image001 image001 image001

Planets Sun Sun Sun
Статистика раздачи
Автор: Снежана | Размер: 1.52 ГБ | Добавлен: 27 июл 2013
Раздают: 0    Качают: 2
Скачать торрент
Скачать торрент
Описание торрента

СообщениеДобавлено: 27 июл 2013 

#77

О фильме:
Информация о фильме
Название: Симпсоны
Оригинальное название: The Simpsons
Год выхода: 2009
Жанр: Мультсериал, комедия, пародия
Режиссер: Мэтт Гроенинг
В ролях: Дэн Кастелланета, Джули Кавнер, Нэнси Картрайт, Ярдли Смит, Гарри Ширер, Хэнк Азария, Памела Хейден, Тресс МакНилл, Карл Видерготт, Мэгги Росвэлл и другие.

О фильме:
Симпсоны живут в вымышленном городе Спрингфилд, со своим обществом и историей. Гомер - отец семейства, который дает плохие советы и работает инспектором безопасности на атомной электростанции; Мардж - любящая мать и жена, старается сохранить спокойствие в семье; Барт - 10 летний хулиган; Лиза - философский 8-летний ребенок; и Мэгги - младенец, который общается посредством соски.

1. Homer the Whopper
2. Bart Gets A "Z"
3. The Great Wife Hope
4. Treehouse of horror XX
5. The Devil Wears Nada
6. Pranks and Greens
7. Rednecks and Broomsticks
8. O Brother, Where Bart Thou?
9. Thursdays with Abie
10. Once Upon a Time in Springfield
11. Million Dollar Maybe
12. Boy Meets Curl
13. The Color Yellow
14. Postcards From the Wedge
15. Stealing First Base
16. The Greatest Story Ever D'ohed
17. American History X-cellent
18. Chief of Hearts
19. The Squirt and the Whale
20. To Surveil, With Love
21. Moe Letter Blues
22. The Bob Next Door
23. Judge Me Tender
General
Complete name : D:The Simpsons - Season 21 WEB-DLRip (2x2)The.Simpsons.S21E01.WEB-DLRip.avi
Format : AVI
Format/Info : Audio Video Interleave
File size : 246 MiB
Duration : 21mn 31s
Overall bit rate : 1 595 Kbps
Writing application : VirtualDubMod 1.5.10.2 (build 2542/release)
Writing library : VirtualDubMod build 2542/release

Video
ID : 0
Format : MPEG-4 Visual
Format profile : Advanced Simple@L5
Format settings, BVOP : 4
Format settings, QPel : No
Format settings, GMC : No warppoints
Format settings, Matrix : Default (H.263)
Codec ID : XVID
Codec ID/Hint : XviD
Duration : 21mn 31s
Bit rate : 941 Kbps
Width : 720 pixels
Height : 400 pixels
Display aspect ratio : 16:9
Frame rate : 23.976 fps
Original frame rate : 25.000 fps
Color space : YUV
Chroma subsampling : 4:2:0
Bit depth : 8 bits
Scan type : Progressive
Compression mode : Lossy
Bits/(Pixel*Frame) : 0.136
Stream size : 145 MiB (59%)
Writing library : XviD 1.2.1 (UTC 2008-12-04)

Audio #1
ID : 1
Format : AC-3
Format/Info : Audio Coding 3
Mode extension : CM (complete main)
Codec ID : 2000
Duration : 21mn 31s
Bit rate mode : Constant
Bit rate : 256 Kbps
Channel(s) : 2 channels
Channel positions : Front: L R
Sampling rate : 48.0 KHz
Bit depth : 16 bits
Compression mode : Lossy
Stream size : 39.4 MiB (16%)
Alignment : Split accross interleaves
Interleave, duration : 42 ms (1.00 video frame)
Interleave, preload duration : 500 ms

Audio #2
ID : 2
Format : AC-3
Format/Info : Audio Coding 3
Mode extension : CM (complete main)
Codec ID : 2000
Duration : 21mn 31s
Bit rate mode : Constant
Bit rate : 384 Kbps
Channel(s) : 6 channels
Channel positions : Front: L C R, Side: L R, LFE
Sampling rate : 48.0 KHz
Bit depth : 16 bits
Compression mode : Lossy
Stream size : 59.1 MiB (24%)
Alignment : Split accross interleaves
Interleave, duration : 42 ms (1.00 video frame)
Interleave, preload duration : 500 ms


Страна: США
Продолжительность: ~ 22 минута
Перевод: Профессиональный (многоголосый, закадровый) 2x2

Файл
Кодек: Xvid
Качество: WEB-DLRip
Видео: Xvid 720x400 23.98fps 1001kbps
Звук:
русская дорожка: Dolby AC3 48000Hz stereo 256kbps
оригинал: Dolby AC3 48000Hz 6ch 384kbps



Релиз от:



   Похожие торренты   Торрент   Размер 
В этой теме нет новых непрочитанных сообщений. Симпсоны / The Simpsons [21x01] (2009) WEB-DLRip

0 | 2

245.58 МБ

В этой теме нет новых непрочитанных сообщений. Симпсоны / The Simpsons [21x01-11] (2009-2010) HDTVRip

3 | 12

2.57 ГБ

В этой теме нет новых непрочитанных сообщений. Симпсоны / The Simpsons [S20] (2008-2009) HDTVRip

8 | 2

3.62 ГБ

В этой теме нет новых непрочитанных сообщений. Симпсоны / The Simpsons [S21] (2009-2010) SATRip от VO-production

18 | 5

4.55 ГБ

В этой теме нет новых непрочитанных сообщений. Симпсоны / The Simpsons [S01-20] (1989-2009) DVDRip от i Gold

10 | 20

79.85 ГБ

В этой теме нет новых непрочитанных сообщений. Симпсоны / The Simpsons [22х13-15 из 22] (2011) WEB-DLRip

0 | 2

606.97 МБ

В этой теме нет новых непрочитанных сообщений. Симпсоны / The Simpsons[22х01-03 из 22] (2010) WEB-DLRip

0 | 3

616.31 МБ




Вы не можете начинать темы
Вы не можете отвечать на сообщения
Вы не можете редактировать свои сообщения
Вы не можете удалять свои сообщения
Вы не можете добавлять вложения

Перейти:  
Для Мосгорсуда, Роскомнадзора и рекламодателей: mosgorsud-torrent[собачка]yandex.ru
 Вход
ppkBB3cker v.2 © 2008-2014 @ PPK
[ Time : 7.870s | 15 Queries | GZIP : Off ]

Торрент трекер RUTOR.IN, Не можете зайти на rutor.org? Какой новый адрес рутор? Какое зеркало рутор? Не работает rutor.org и зеркала? Тогда наш торрент специально для вас. Rutor.in неофициальное зеркало rutor. В случае если у Вас заблокирован rutor или вдруг Вы не можете на него зайти, то Вы без труда сможете скачать бесплатно и без рекламы последние новинки кино, игр, сериалов и прочего у нас, на Rutor.in. Не нужно использовать прокси, чтобы зайти на рутор, достаточно воспользоваться нашим ресурсом. Все новые фильмы, игры, сериалы, книги и музыка за 2013 и 2014 годы через торрент бесплатно. Скачивайте фильмы в хорошем качестве, игры для пк, xbox, playstation без регистрации. У нас вы найдете новые Зарубежные сериалы и Русские сериалы 2013, 2014, 2015 годов. Оставайтесь с нами, качайте любимые фильмы, игры, сериалы, книги и музыку.