img image001 image001 image001 image001 image001 image001 image001 image001 image001 image001 image001 image001 image001 image001 image001

Planets Sun Sun Sun
Статистика раздачи
Автор: Снежана | Размер: 744.35 МБ | Добавлен: 27 июл 2013
Раздают: 49    Качают: 3
Скачать торрент
Скачать торрент
Описание торрента

СообщениеДобавлено: 27 июл 2013 

#77

Информация о фильме
Название: Тролль в Центральном парке
Оригинальное название: A Troll in Central Park
Год выхода: 1994
Жанр: мультфильм, фэнтези, семейный
Режиссер: Дон Блат /Don Bluth/, Гари Голдман /Gary Goldman/
В ролях: Дом ДеЛуис /Dom DeLuise/, Клорис Личмен /Cloris Leachman/, Чарльз Нельсон Рейли /Charles Nelson Reilly/, Джонатан Прайс /Jonathan Pryce/, Хэйли Миллз /Hayley Mills/, Филлип Глассер /Phillip Glasser/, Тони Саншайн Гловер /Tawny Sunshine Glover/,Нил Росс /Neil Ross/, Уилл Райан /Will Ryan/

О фильме:
Симпатичный герой фильма, Стенли,- тролль, но он совсем не такой, каким его обычно представляют. У него доброе сердце и наичудеснейший волшебный дар: зеленый большой палец, от прикосновения которого расцветают цветы.

Но злая королева, владычица Царства троллей, узнает о секрете Стенли и ссылает его подальше, где нет никакой зелени: в город Нью-Йорк! А там маленького героя ждет много небывалых приключений…

Страна: США, Ирландия
Студия: Don Bluth Entertainment, Warner Bros.
Продолжительность: 01:15:07
Перевод: Профессиональный (полное дублирование)

Файл
Кодек: XviD / MP3
Качество: DVDRip
Видео: XviD, 672x384 (16:9), 23.976 fps, 1 250 Kbps (0.202 bit/pixel)
Звук: MP3, 48.0 KHz, 2 ch, 128 Kbps, CBR

General
Complete name : E:A.Troll.in.Central.Park_[Rutor.org].avi
Format : AVI
Format/Info : Audio Video Interleave
File size : 744 MiB
Duration : 1h 15mn
Overall bit rate : 1 385 Kbps
Movie name : Тролль в центральном парке / Troll in Central Park, A (1994)

Video
ID : 0
Format : MPEG-4 Visual
Format profile : Advanced Simple@L5
Format settings, BVOP : 1
Format settings, QPel : No
Format settings, GMC : No warppoints
Format settings, Matrix : Custom
Codec ID : XVID
Codec ID/Hint : XviD
Duration : 1h 15mn
Bit rate : 1 250 Kbps
Width : 672 pixels
Height : 384 pixels
Display aspect ratio : 16:9
Frame rate : 23.976 fps
Color space : YUV
Chroma subsampling : 4:2:0
Bit depth : 8 bits
Scan type : Progressive
Compression mode : Lossy
Bits/(Pixel*Frame) : 0.202
Stream size : 672 MiB (90%)
Writing library : XviD 1.1.2 (UTC 2006-11-01)

Audio
ID : 1
Format : MPEG Audio
Format version : Version 1
Format profile : Layer 3
Mode : Joint stereo
Codec ID : 55
Codec ID/Hint : MP3
Duration : 1h 15mn
Bit rate mode : Constant
Bit rate : 128 Kbps
Channel(s) : 2 channels
Sampling rate : 48.0 KHz
Compression mode : Lossy
Stream size : 68.8 MiB (9%)
Alignment : Aligned on interleaves
Interleave, duration : 83 ms (2.00 video frames)
Interleave, preload duration : 504 ms
Writing library : LAME3.97
Encoding settings : -m j -V 4 -q 2 -lowpass 17 -b 128
Language : / / / Swati





   Похожие торренты   Торрент   Размер 
В этой теме нет новых непрочитанных сообщений. Тролль в Центральном парке / A Troll in Central Park (1994) DVDRip от Gold Cartoon KINOREAKTOR (Sheikn)

81 | 4

1.31 ГБ

В этой теме нет новых непрочитанных сообщений. Андреа Бочелли - Одна ночь в Центральном парке / Andrea Bocelli - Concerto: One Night in Central Park (2011) Blu-Ray 1080i

6 | 17

36.36 ГБ

В этой теме нет новых непрочитанных сообщений. Андреа Бочелли - Одна ночь в Центральном парке / Andrea Bocelli - Concerto: One Night in Central Park (2011) HDRip

127 | 8

1.46 ГБ

В этой теме нет новых непрочитанных сообщений. Это мой парк / Война в Центральном парке / The Park Is Mine (1986) TVRip

2 | 4

809.01 МБ

В этой теме нет новых непрочитанных сообщений. Тролль / Troll (1986) DVDRip

5 | 2

745.96 МБ

В этой теме нет новых непрочитанных сообщений. Тролль / Troll (1986) DVDRip | P

93 | 33

1.34 ГБ

В этой теме нет новых непрочитанных сообщений. Тролль / Troll (1986) HDRip-AVC | P, L1

17 | 12

1.45 ГБ




Вы не можете начинать темы
Вы не можете отвечать на сообщения
Вы не можете редактировать свои сообщения
Вы не можете удалять свои сообщения
Вы не можете добавлять вложения

Перейти:  
Для Мосгорсуда, Роскомнадзора и рекламодателей: mosgorsud-torrent[собачка]yandex.ru
 Вход
ppkBB3cker v.2 © 2008-2014 @ PPK
[ Time : 0.060s | 15 Queries | GZIP : Off ]

cron