img image001 image001 image001 image001 image001 image001 image001 image001 image001 image001 image001 image001 image001 image001 image001

Planets Sun Sun Sun
Статистика раздачи
Автор: Снежана | Размер: 700.1 МБ | Добавлен: 27 июл 2013
Раздают: 2    Качают: 6
Скачать торрент
Скачать торрент
Описание торрента

СообщениеДобавлено: 27 июл 2013 

#77

Информация о фильме
Название: Однажды в лесу
Оригинальное название: Once Upon a Forest
Год выхода: 1993
Жанр: мультфильм, приключения, семейный
Режиссер: Чарльз Гросвенор / Charles Grosvenor
В ролях: Майкл Кроуфорд /Michael Crawford/, Бен Верин /Ben Vereen/, Эллен Блэйн /Ellen Blain/, Бенджи Грегори /Benji Gregory/, Пейдж Госни /Paige Gosney/, Элизабет Мосс /Elisabeth Moss/, Пол Айдинг /Paul Eiding/, Джанет Уолдо /Janet Waldo/, Сьюзен Сайло /Susan Silo/, Уилл Эстес /Will Estes/

О фильме:
Лесная школа, в которой, в свободной форме, маленькие пушистики познают мир. Учит их старый, мудрый барсук Корнелиус. Всего в классе учатся 4 ученика — Милая мышка Эбигель, крот Эдгар, ежик Рассел и, самая маленькая из класса, девочка-барсучёнок Мишель. Во время одного из уроков на природе они обнаруживают асфальтовую дорогу и становятся свидетелями аварии грузовика с цистерной, который перевозил химические отходы. Цистерна, как и положено ей, дала течь и смертоносные испарения потекли в сторону поселения пушистиков. В результате аварии серьезно отравилась Мишель, и учитель Корнелиус отправил оставшихся учеников в трудное путешествие в соседний лес за лекарственной травой.

Страна: США, Великобритания
Студия: Hanna-Barbera Productions
Продолжительность: 01:07:52
Перевод: Профессиональный (полное дублирование)

Файл
Кодек: DivX / MP3
Качество: DVDRip
Видео: DivX 5, 640x464 (1.379), 25.000 fps, 1 320 Kbps (0.178 bit/pixel)
Звук: MP3, 48.0 KHz, 1 ch, 112 Kbps, CBR

General
Complete name : E:Once.Upon.a.Forest_[Rutor.org].avi
Format : AVI
Format/Info : Audio Video Interleave
File size : 700 MiB
Duration : 1h 7mn
Overall bit rate : 1 442 Kbps
Writing application : VirtualDubModRus 1.5.10.2 (build 2540/release)
Writing library : VirtualDubMod build 2540/release

Video
ID : 0
Format : MPEG-4 Visual
Format settings, BVOP : 1
Format settings, QPel : No
Format settings, GMC : No warppoints
Format settings, Matrix : Default (H.263)
Muxing mode : Packed bitstream
Codec ID : DX50
Codec ID/Hint : DivX 5
Duration : 1h 7mn
Bit rate : 1 320 Kbps
Width : 640 pixels
Height : 464 pixels
Display aspect ratio : 1.379
Frame rate : 25.000 fps
Color space : YUV
Chroma subsampling : 4:2:0
Bit depth : 8 bits
Scan type : Progressive
Compression mode : Lossy
Bits/(Pixel*Frame) : 0.178
Stream size : 641 MiB (92%)
Writing library : DivX 6.8.5 (UTC 2009-08-20)

Audio
ID : 1
Format : MPEG Audio
Format version : Version 1
Format profile : Layer 3
Codec ID : 55
Codec ID/Hint : MP3
Duration : 1h 7mn
Bit rate mode : Constant
Bit rate : 112 Kbps
Channel(s) : 1 channel
Sampling rate : 48.0 KHz
Compression mode : Lossy
Stream size : 54.4 MiB (8%)
Alignment : Aligned on interleaves
Interleave, duration : 40 ms (1.00 video frame)
Interleave, preload duration : 504 ms
Writing library : LAME3.96.1





   Похожие торренты   Торрент   Размер 
В этой теме нет новых непрочитанных сообщений. Однажды в лесу / Once Upon a Forest (1993) DVDRip-AVC от TORRENT-45 | Лицензия

27 | 3

1.36 ГБ

В этой теме нет новых непрочитанных сообщений. Однажды в лесу / Once Upon a Forest / Il etait une foret (2013) BDRip-AVC от -=HD-NET=-

55 | 7

1.07 ГБ

В этой теме нет новых непрочитанных сообщений. Однажды в лесу / Once Upon a Forest / Il était une forêt (2013) HDRip | P1

762 | 152

1.37 ГБ

В этой теме нет новых непрочитанных сообщений. Однажды в лесу / Once Upon a Forest / Il etait une foret (2013) BDRip 720p от NNNB

70 | 7

3.63 ГБ

В этой теме нет новых непрочитанных сообщений. Однажды в лесу / Once Upon a Forest / Il etait une foret (2013) BDRip 1080p от NNNB

179 | 9

7.73 ГБ

В этой теме нет новых непрочитанных сообщений. В лесу / Into the Forest (2015) WEB-DL 1080p | L

1177 | 126

3.23 ГБ

В этой теме нет новых непрочитанных сообщений. В лесу / The Forest (2011) SATRip

4 | 4

1.37 ГБ




Вы не можете начинать темы
Вы не можете отвечать на сообщения
Вы не можете редактировать свои сообщения
Вы не можете удалять свои сообщения
Вы не можете добавлять вложения

Перейти:  
Для Мосгорсуда, Роскомнадзора и рекламодателей: mosgorsud-torrent[собачка]yandex.ru
 Вход
ppkBB3cker v.2 © 2008-2014 @ PPK
[ Time : 0.046s | 14 Queries | GZIP : Off ]

Торрент трекер RUTOR.IN, Не можете зайти на rutor.org? Какой новый адрес рутор? Какое зеркало рутор? Не работает rutor.org и зеркала? Тогда наш торрент специально для вас. Rutor.in неофициальное зеркало rutor. В случае если у Вас заблокирован rutor или вдруг Вы не можете на него зайти, то Вы без труда сможете скачать бесплатно и без рекламы последние новинки кино, игр, сериалов и прочего у нас, на Rutor.in. Не нужно использовать прокси, чтобы зайти на рутор, достаточно воспользоваться нашим ресурсом. Все новые фильмы, игры, сериалы, книги и музыка за 2013 и 2014 годы через торрент бесплатно. Скачивайте фильмы в хорошем качестве, игры для пк, xbox, playstation без регистрации. У нас вы найдете новые Зарубежные сериалы и Русские сериалы 2013, 2014, 2015 годов. Оставайтесь с нами, качайте любимые фильмы, игры, сериалы, книги и музыку.