img image001 image001 image001 image001 image001 image001 image001 image001 image001 image001 image001 image001 image001 image001 image001

Planets Sun Sun Sun
Статистика раздачи
Автор: Снежана | Размер: 743.13 МБ | Добавлен: 27 июл 2013
Раздают: 393    Качают: 7
Скачать торрент
Скачать торрент
Описание торрента

СообщениеДобавлено: 27 июл 2013 

#77

Информация о фильме
Название: Книга джунглей 2
Оригинальное название: The Jungle Book 2
Год выхода: 2003
Жанр: мультфильм, мюзикл, приключения, семейный
Режиссер: Стив Тренберт / Steve Trenbirth
В ролях: Джон Гудмен, Хэйли Джоэл Осмент, Мэй Уитман, Коннор Фанк, Боб Джоулз, Тони Джей, Джон Рис-Дэвис, Джим Каммингс, Фил Коллинз, Джефф Беннетт

О фильме:
Продолжение невероятной истории об удивительном мальчике, выросшем в джунглях. После того, как Маугли вернулся жить в настоящую человеческую семью, он обрел настоящую дружбу и любовь, но его прошлая жизнь в джунглях продолжает напоминать о себе. Малыш соскучился по своим друзьям, оставшимся в лесу. Друзья Маугли во главе с веселым мишкой Балу тоже очень скучают по своему «лягушонку».

Но Балу далеко не единственный, кто жаждет увидать «любимчика джунглей»: тигр Шер Хан жаждет поквитаться с дерзким выскочкой. Кто встретит Маугли в джунглях первым — старые друзья или тигр-людоед? Но нашему маленькому герою не привыкать к опасности, ведь из самых сложных ситуаций он находит самый смешной и оригинальный выход!

Страна: США, Австралия
Студия: Buena Vista Pictures/ Icon Film Distribution / Igor Entertainment / Beacon Pictures (Australia)
Продолжительность: 01:09:20
Перевод: Профессиональный (дублированный)

Файл
Кодек: XviD / AC3
Качество: DVDRip
Видео: XviD, 688x416 (1.654), 25.000 fps, 1 105 Kbps (0.154 bit/pixel)
Звук: AC-3, 48.0 KHz, 6 ch, 384 Kbps, CBR

General
Complete name : E:The.Jungle.Book.2_[Rutor.org].avi
Format : AVI
Format/Info : Audio Video Interleave
File size : 743 MiB
Duration : 1h 9mn
Overall bit rate : 1 498 Kbps
Writing application : VirtualDubModRus 1.5.10.2 (build 2542/release)
Writing library : VirtualDubMod build 2542/release

Video
ID : 0
Format : MPEG-4 Visual
Format profile : Advanced Simple@L5
Format settings, BVOP : 3
Format settings, QPel : No
Format settings, GMC : No warppoints
Format settings, Matrix : Custom
Codec ID : XVID
Codec ID/Hint : XviD
Duration : 1h 9mn
Bit rate : 1 105 Kbps
Width : 688 pixels
Height : 416 pixels
Display aspect ratio : 1.654
Frame rate : 25.000 fps
Color space : YUV
Chroma subsampling : 4:2:0
Bit depth : 8 bits
Scan type : Progressive
Compression mode : Lossy
Bits/(Pixel*Frame) : 0.154
Stream size : 548 MiB (74%)
Writing library : XviD 1.2.0.dev47 (UTC 2006-11-01)

Audio
ID : 1
Format : AC-3
Format/Info : Audio Coding 3
Mode extension : CM (complete main)
Codec ID : 2000
Duration : 1h 9mn
Bit rate mode : Constant
Bit rate : 384 Kbps
Channel(s) : 6 channels
Channel positions : Front: L C R, Side: L R, LFE
Sampling rate : 48.0 KHz
Bit depth : 16 bits
Compression mode : Lossy
Stream size : 190 MiB (26%)
Alignment : Split accross interleaves
Interleave, duration : 40 ms (1.00 video frame)
Interleave, preload duration : 500 ms




   Похожие торренты   Торрент   Размер 
В этой теме нет новых непрочитанных сообщений. Книга джунглей 2 / The Jungle Book 2 (2003) BDRip 720p от Leonardo and Scarabey | iPad

246 | 33

1.02 ГБ

В этой теме нет новых непрочитанных сообщений. Книга Джунглей: Дилогия / The Jungle Book: Dilogy (1967-2003) HDRip от Kaztorrents | КПК | D

44 | 3

655.56 МБ

В этой теме нет новых непрочитанных сообщений. Книга Джунглей: Дилогия / The Jungle Book: Dilogy (1967-2003) BDRip | Дополнительные материалы

10 | 6

6.1 ГБ

В этой теме нет новых непрочитанных сообщений. Книга Джунглей / The Jungle Book (1967) DVDRip

205 | 16

1.44 ГБ

В этой теме нет новых непрочитанных сообщений. Книга джунглей / The Jungle Book (1994) DVDRip

56 | 13

1.36 ГБ

В этой теме нет новых непрочитанных сообщений. Книга джунглей / The Jungle Book (1967) DVDRip-AVC от 25KADR

614 | 17

1.97 ГБ

В этой теме нет новых непрочитанных сообщений. Книга джунглей / The Jungle Book (2016) DVDRip | Line

9765 | 602

1.46 ГБ




Вы не можете начинать темы
Вы не можете отвечать на сообщения
Вы не можете редактировать свои сообщения
Вы не можете удалять свои сообщения
Вы не можете добавлять вложения

Перейти:  
Для Мосгорсуда, Роскомнадзора и рекламодателей: mosgorsud-torrent[собачка]yandex.ru
 Вход
ppkBB3cker v.2 © 2008-2014 @ PPK
[ Time : 0.047s | 15 Queries | GZIP : Off ]

Торрент трекер RUTOR.IN, Не можете зайти на rutor.org? Какой новый адрес рутор? Какое зеркало рутор? Не работает rutor.org и зеркала? Тогда наш торрент специально для вас. Rutor.in неофициальное зеркало rutor. В случае если у Вас заблокирован rutor или вдруг Вы не можете на него зайти, то Вы без труда сможете скачать бесплатно и без рекламы последние новинки кино, игр, сериалов и прочего у нас, на Rutor.in. Не нужно использовать прокси, чтобы зайти на рутор, достаточно воспользоваться нашим ресурсом. Все новые фильмы, игры, сериалы, книги и музыка за 2013 и 2014 годы через торрент бесплатно. Скачивайте фильмы в хорошем качестве, игры для пк, xbox, playstation без регистрации. У нас вы найдете новые Зарубежные сериалы и Русские сериалы 2013, 2014, 2015 годов. Оставайтесь с нами, качайте любимые фильмы, игры, сериалы, книги и музыку.
cron