img image001 image001 image001 image001 image001 image001 image001 image001 image001 image001 image001 image001 image001 image001 image001

Planets Sun Sun Sun
Статистика раздачи
Автор: Снежана | Размер: 4.37 ГБ | Добавлен: 27 июл 2013
Раздают: 9    Качают: 2
Скачать торрент
Скачать торрент
Описание торрента

СообщениеДобавлено: 27 июл 2013 

[imgright]http://ecx.images-amazon.com/images/I/61VYGvqWpYL.jpg" />

Жанр: Мультфильм, Фэнтези, Драма, Семейный, Музыка.
Год: 1940.
Студия: Walt Disney Productions.
Страна: США.
Режиссер: Норман Фергюсон /Norman Ferguson/, Т. Хи /T. Hee/.
В ролях: Мэл Бланк /Mel Blanc/, Дон Броди /Don Brodie/, Уолтер Кэтлетт /Walter Catlett/, Мэрион Дарлингтон /Marion Darlington/, Фрэнки Дарро /Frankie Darro/, Клифф Эдвардс /Cliff Edwards/, Дики Джонс /Dickie Jones/, Чарльз Джуделс /Charles Judels/, Джек Мерсер /Jack Mercer/, Патриция Пейдж /Patricia Page/.

Описание: Голубая фея оживила куклу-марионетку, но чтобы стать настоящим человеком, герою надо в добрых делах проявить свою храбрость и честность. И вот длинноносый непоседа и его совестливый друг сверчок Джимини Крикет отправляются навстречу самым невероятным приключениям.

*********** Pinocchio (1940) ***********

Release Date: 14.04.2011

Release Info:
File Name .....: Pinokkio.1940.DUAL.BDRip.720p.h264.AC3.-HQ-ViDEO.mkv
Author ........: GYN

Runtime .......: 01:27:44 min
Video Format ..: MKV, H.264 codec
Video Bitrate .: 6 088 kbps
Bits per Pixel : 0.364 bit/pixel
Resolution ....: 968 x 720
Aspect Ratio ..: 4:3
Framerate .....: 23.976 fps

Audio First....: Russian AC3 Dolby Digital; 448.00 kbps; 5.1 Ch; 48 kHz
Audio Second...: English AC3 Dolby Digital; 448.00 kbps; 5.1 Ch; 48 kHz
Subtitle.......: Russian, English.

File Size .....: 4.37 GB
Source.........: Blu-ray Disc



General
Complete name : Pinokkio.1940.DUAL.BDRip.720p.h264.AC3.-HQ-ViDEO.mkv
Format : Matroska
File size : 4.37 GiB
Duration : 1h 27mn
Overall bit rate : 7 126 Kbps
Movie name : Pinocchio (1940)
Encoded date : UTC 2011-04-14 06:30:02
Writing application : mkvmerge v3.3.0 ('Language') built on Mar 24 2010 14:59:24
Writing library : libebml v0.8.0 + libmatroska v0.9.0

Video
ID : 1
Format : AVC
Format/Info : Advanced Video Codec
Format profile : High@L4.1
Format settings, CABAC : Yes
Format settings, ReFrames : 6 frames
Codec ID : V_MPEG4/ISO/AVC
Duration : 1h 27mn
Bit rate mode : Variable
Bit rate : 6 088 Kbps
Width : 968 pixels
Height : 720 pixels
Display aspect ratio : 4:3
Frame rate : 23.976 fps
Color space : YUV
Chroma subsampling : 4:2:0
Bit depth : 8 bits
Scan type : Progressive
Bits/(Pixel*Frame) : 0.364
Stream size : 3.73 GiB (85%)
Title : Encoded by GYN

Audio #1
ID : 2
Format : AC-3
Format/Info : Audio Coding 3
Mode extension : CM (complete main)
Codec ID : A_AC3
Duration : 1h 27mn
Bit rate mode : Constant
Bit rate : 448 Kbps
Channel(s) : 6 channels
Channel positions : Front: L C R, Side: L R, LFE
Sampling rate : 48.0 KHz
Bit depth : 16 bits
Compression mode : Lossy
Stream size : 281 MiB (6%)
Title : DUB
Language : Russian

Audio #2
ID : 3
Format : AC-3
Format/Info : Audio Coding 3
Mode extension : CM (complete main)
Codec ID : A_AC3
Duration : 1h 27mn
Bit rate mode : Constant
Bit rate : 448 Kbps
Channel(s) : 6 channels
Channel positions : Front: L C R, Side: L R, LFE
Sampling rate : 48.0 KHz
Bit depth : 16 bits
Compression mode : Lossy
Stream size : 281 MiB (6%)
Title : Original
Language : English

Text #1
ID : 4
Format : UTF-8
Codec ID : S_TEXT/UTF8
Codec ID/Info : UTF-8 Plain Text
Language : Russian

Text #2
ID : 5
Format : UTF-8
Codec ID : S_TEXT/UTF8
Codec ID/Info : UTF-8 Plain Text
Language : English


Язык: Русский дублированный + Английская дорожка.

Субтитры: Русские, Английские.

Скриншоты для оценки качества:



Релиз:


   Похожие торренты   Торрент   Размер 
В этой теме нет новых непрочитанных сообщений. Пиноккио / Pinocchio (1940) BDRip от HQ-ViDEO

11 | 6

1.65 ГБ

В этой теме нет новых непрочитанных сообщений. Пиноккио / Pinocchio (1940) BDRip 720p | 60 fps

51 | 10

4.76 ГБ

В этой теме нет новых непрочитанных сообщений. Пиноккио / Pinocchio (1940) BDRip 720p от Freeisland

0 | 4

4.38 ГБ

В этой теме нет новых непрочитанных сообщений. Пиноккио / Pinocchio (1940) BDRip HEVC 720p | D

41 | 2

2.88 ГБ

В этой теме нет новых непрочитанных сообщений. Пиноккио / Pinocchio (1940) BDRip-AVC

66 | 9

1.45 ГБ

В этой теме нет новых непрочитанных сообщений. Пиноккио / Pinocchio (1940) BDRip от HQCLUB

83 | 6

1.45 ГБ

В этой теме нет новых непрочитанных сообщений. Пиноккио / Pinocchio (1940) BDRip-AVC от 0ptimus | D, P, A

89 | 20

2.34 ГБ




Вы не можете начинать темы
Вы не можете отвечать на сообщения
Вы не можете редактировать свои сообщения
Вы не можете удалять свои сообщения
Вы не можете добавлять вложения

Перейти:  
Для Мосгорсуда, Роскомнадзора и рекламодателей: mosgorsud-torrent[собачка]yandex.ru
 Вход
ppkBB3cker v.2 © 2008-2014 @ PPK
[ Time : 0.022s | 14 Queries | GZIP : On ]

Торрент трекер RUTOR.IN, Не можете зайти на rutor.org? Какой новый адрес рутор? Какое зеркало рутор? Не работает rutor.org и зеркала? Тогда наш торрент специально для вас. Rutor.in неофициальное зеркало rutor. В случае если у Вас заблокирован rutor или вдруг Вы не можете на него зайти, то Вы без труда сможете скачать бесплатно и без рекламы последние новинки кино, игр, сериалов и прочего у нас, на Rutor.in. Не нужно использовать прокси, чтобы зайти на рутор, достаточно воспользоваться нашим ресурсом. Все новые фильмы, игры, сериалы, книги и музыка за 2013 и 2014 годы через торрент бесплатно. Скачивайте фильмы в хорошем качестве, игры для пк, xbox, playstation без регистрации. У нас вы найдете новые Зарубежные сериалы и Русские сериалы 2013, 2014, 2015 годов. Оставайтесь с нами, качайте любимые фильмы, игры, сериалы, книги и музыку.