img image001 image001 image001 image001 image001 image001 image001 image001 image001 image001 image001 image001 image001 image001 image001

Planets Sun Sun Sun
Статистика раздачи
Автор: Снежана | Размер: 4.37 ГБ | Добавлен: 27 июл 2013
Раздают: 9    Качают: 4
Скачать торрент
Скачать торрент
Описание торрента

СообщениеДобавлено: 27 июл 2013 

[imgright]http://ecx.images-amazon.com/images/I/51lf1feXjUL.jpg" />

Жанр: Мультфильм, Мюзикл, Семейный.
Год: 1941.
Студия: Walt Disney Productions.
Страна: США.
Режиссер: Сэмюэл Армстронг /Samuel Armstrong/, Норман Фергюсон /Norman Ferguson/.
В ролях: Джеймс Баскетт /James Baskett/, Херман Бинг /Herman Bing/, Билли Блэтчер /Billy Bletcher/, Эдвард Брофи /Edward Brophy/, Джим Кармайкл /Jim Carmichael/, Клифф Эдвардс /Cliff Edwards/, Верна Фелтон /Verna Felton/, Норин Гэммилл /Noreen Gammill/, Эдди Холден /Eddie Holden/, Стерлинг Холлоуэй /Sterling Holloway/.

Описание: История о маленьком слоненке из цирка, родившемся с очень большими ушами, что было рассмотрено как позорное явление среди цирковых слонов. Но зато он научился летать...

*********** Dumbo (1941) ***********

Release Date: 14.04.2011

Release Info:
File Name .....: Dumbo.1941.QUAD.BDRip.720p.h264.AC3.-HQ-ViDEO.mkv
Author ........: GYN

Runtime .......: 01:03:56 min
Video Format ..: MKV, H.264 codec
Video Bitrate .: 8 048 kbps
Bits per Pixel : 0.486 bit/pixel
Resolution ....: 960 x 720
Aspect Ratio ..: 4:3
Framerate .....: 23.976 fps

Audio First....: Russian AC3 Dolby Digital; 192.00 kbps; 2.0 Ch; 48 kHz
Audio Second...: Russian AC3 Dolby Digital; 448.00 kbps; 5.1 Ch; 48 kHz
Audio Third....: Russian AC3 Dolby Digital; 448.00 kbps; 5.1 Ch; 48 kHz
Audio Fourth...: English AC3 Dolby Digital; 448.00 kbps; 5.1 Ch; 48 kHz
Subtitle.......: Russian, English.

File Size .....: 4.37 GB
Source.........: Blu-ray Disc



General
Complete name : Dumbo.1941.QUAD.BDRip.720p.h264.AC3.-HQ-ViDEO.mkv
Format : Matroska
File size : 4.37 GiB
Duration : 1h 3mn
Overall bit rate : 9 779 Kbps
Movie name : Dumbo (1941)
Encoded date : UTC 2011-04-14 12:36:16
Writing application : mkvmerge v3.3.0 ('Language') built on Mar 24 2010 14:59:24
Writing library : libebml v0.8.0 + libmatroska v0.9.0

Video
ID : 1
Format : AVC
Format/Info : Advanced Video Codec
Format profile : High@L4.1
Format settings, CABAC : Yes
Format settings, ReFrames : 6 frames
Codec ID : V_MPEG4/ISO/AVC
Duration : 1h 3mn
Bit rate mode : Variable
Bit rate : 8 048 Kbps
Width : 960 pixels
Height : 720 pixels
Display aspect ratio : 4:3
Frame rate : 23.976 fps
Color space : YUV
Chroma subsampling : 4:2:0
Bit depth : 8 bits
Scan type : Progressive
Bits/(Pixel*Frame) : 0.486
Stream size : 3.59 GiB (82%)
Title : Encoded by GYN

Audio #1
ID : 2
Format : AC-3
Format/Info : Audio Coding 3
Mode extension : CM (complete main)
Codec ID : A_AC3
Duration : 1h 3mn
Bit rate mode : Constant
Bit rate : 192 Kbps
Channel(s) : 2 channels
Channel positions : Front: L R
Sampling rate : 48.0 KHz
Bit depth : 16 bits
Compression mode : Lossy
Stream size : 87.8 MiB (2%)
Title : DUB
Language : Russian

Audio #2
ID : 3
Format : AC-3
Format/Info : Audio Coding 3
Mode extension : CM (complete main)
Codec ID : A_AC3
Duration : 1h 3mn
Bit rate mode : Constant
Bit rate : 448 Kbps
Channel(s) : 6 channels
Channel positions : Front: L C R, Side: L R, LFE
Sampling rate : 48.0 KHz
Bit depth : 16 bits
Compression mode : Lossy
Stream size : 205 MiB (5%)
Title : AVO [Glanz]
Language : Russian

Audio #3
ID : 4
Format : AC-3
Format/Info : Audio Coding 3
Mode extension : CM (complete main)
Codec ID : A_AC3
Duration : 1h 3mn
Bit rate mode : Constant
Bit rate : 448 Kbps
Channel(s) : 6 channels
Channel positions : Front: L C R, Side: L R, LFE
Sampling rate : 48.0 KHz
Bit depth : 16 bits
Compression mode : Lossy
Stream size : 205 MiB (5%)
Title : AVO [Mihalev]
Language : Russian

Audio #4
ID : 5
Format : AC-3
Format/Info : Audio Coding 3
Mode extension : CM (complete main)
Codec ID : A_AC3
Duration : 1h 3mn
Bit rate mode : Constant
Bit rate : 448 Kbps
Channel(s) : 6 channels
Channel positions : Front: L C R, Side: L R, LFE
Sampling rate : 48.0 KHz
Bit depth : 16 bits
Compression mode : Lossy
Stream size : 205 MiB (5%)
Title : Original
Language : English

Text #1
ID : 6
Format : UTF-8
Codec ID : S_TEXT/UTF8
Codec ID/Info : UTF-8 Plain Text
Language : Russian

Text #2
ID : 7
Format : UTF-8
Codec ID : S_TEXT/UTF8
Codec ID/Info : UTF-8 Plain Text
Language : English


Язык: Русский дублированный + Авторский перевод Гланц + Авторский перевод Михалев + Английская дорожка.

Субтитры: Русские, Английские.

Скриншоты для оценки качества:



Релиз:


   Похожие торренты   Торрент   Размер 
В этой теме нет новых непрочитанных сообщений. Дамбо / Dumbo (1941) BDRip 720p | 60 fps | D

0 | 78

3.72 ГБ

В этой теме нет новых непрочитанных сообщений. Дамбо / Dumbo (1941) BDRip 720p | 60 fps | D

135 | 7

3.04 ГБ

В этой теме нет новых непрочитанных сообщений. Дамбо / Dumbo (1941) BDRip HEVC 720p | D, P2

13 | 0

1.64 ГБ

В этой теме нет новых непрочитанных сообщений. Дамбо / Dumbo (1941) BDRip 720p от Leonardo and Scarabey

232 | 35

1.4 ГБ

В этой теме нет новых непрочитанных сообщений. Дамбо / Dumbo (1941) BDRip 1080p | 60 fps | D

28 | 3

5.51 ГБ

В этой теме нет новых непрочитанных сообщений. Дамбо / Dumbo (1941) BDRip 1080p | 60 fps | D

0 | 31

7 ГБ

В этой теме нет новых непрочитанных сообщений. Дамбо / Dumbo (1941) BDRip от HQCLUB

251 | 16

1.49 ГБ




Вы не можете начинать темы
Вы не можете отвечать на сообщения
Вы не можете редактировать свои сообщения
Вы не можете удалять свои сообщения
Вы не можете добавлять вложения

Перейти:  
Для Мосгорсуда, Роскомнадзора и рекламодателей: mosgorsud-torrent[собачка]yandex.ru
 Вход
ppkBB3cker v.2 © 2008-2014 @ PPK
[ Time : 0.064s | 15 Queries | GZIP : Off ]

Торрент трекер RUTOR.IN, Не можете зайти на rutor.org? Какой новый адрес рутор? Какое зеркало рутор? Не работает rutor.org и зеркала? Тогда наш торрент специально для вас. Rutor.in неофициальное зеркало rutor. В случае если у Вас заблокирован rutor или вдруг Вы не можете на него зайти, то Вы без труда сможете скачать бесплатно и без рекламы последние новинки кино, игр, сериалов и прочего у нас, на Rutor.in. Не нужно использовать прокси, чтобы зайти на рутор, достаточно воспользоваться нашим ресурсом. Все новые фильмы, игры, сериалы, книги и музыка за 2013 и 2014 годы через торрент бесплатно. Скачивайте фильмы в хорошем качестве, игры для пк, xbox, playstation без регистрации. У нас вы найдете новые Зарубежные сериалы и Русские сериалы 2013, 2014, 2015 годов. Оставайтесь с нами, качайте любимые фильмы, игры, сериалы, книги и музыку.