img image001 image001 image001 image001 image001 image001 image001 image001 image001 image001 image001 image001 image001 image001 image001

Planets Sun Sun Sun
Статистика раздачи
Автор: Снежана | Размер: 4.37 ГБ | Добавлен: 27 июл 2013
Раздают: 194    Качают: 18
Скачать торрент
Скачать торрент
Описание торрента

СообщениеДобавлено: 27 июл 2013 

[imgright]http://ecx.images-amazon.com/images/I/51LYba1WwmL.jpg" />

Жанр: Мультфильм, Драма, Семейный.
Год: 1942.
Студия: Walt Disney Productions.
Страна: США.
Режиссер: Джеймс Алгар /James Algar/, Сэмюэл Армстронг /Samuel Armstrong/.
Роли озвучивали: Харди Олбрайт /Hardie Albright/, Стэн Александр /Stan Alexander/, Питер Бен /Peter Behn/, Тим Дэвис /Tim Davis/, Донни Данаган /Donnie Dunagan/, Кэмми Кинг /Cammie King/, Маргарет Ли /Margaret Lee/, Фред Шилдс /Fred Shields/, Пола Уинслоу /Paula Winslowe/, Уилл Райт /Will Wright/, Тельма Бордман /Thelma Boardman/, Джанет Чэпман /Janet Chapman/, Джинн Кристи /Jeanne Christy/, Мэрион Дарлингтон /Marion Darlington/, Бобетт Одри /Bobette Audrey/.
Роли дублировали: Антон Дёров, Михаил Глотов, Руслан Кулешов, Илья Бледный, Михаил Владимиров, Иван Дахненко, Даша Юрченко, Людмила Шувалова, Сергей Чонишвили, Елена Соловьева, Михаил Гаврилюк.

Описание: Однажды утром на маленькой, освещенной весенним солнцем, лесной полянке родился олененок. На нового лесного принца сбежались и слетелись посмотреть все звери и птицы. Олененка назвали Бемби.

Когда Бемби научился ходить и разговаривать он обзавелся друзьями — кроликом Тампером и скунсом Цветочком. А однажды на лугу, куда привела его мама, Бэмби познакомился с маленькой веселой оленихой — Фэйлин. Но жизнь в лесу бывает опасной и жестокой. Впервые Бемби столкнулся с этим, когда прозрачный осенний лесной воздух пронзили выстрелы из ружья — все звери начали в панике убегать, и тогда Бемби впервые услышал страшное слово — Человек...

*********** Bambi (1942) ***********

Release Date: 12.04.2011

Release Info:
File Name .....: Bembi.1942.DUAL.BDRip.720p.h264.AC3.-HQ-ViDEO.mkv
Author ........: GYN

Runtime .......: 01:09:50 min
Video Format ..: MKV, H.264 codec
Video Bitrate .: 7 490 kbps
Bits per Pixel : 0.448 bit/pixel
Resolution ....: 968 x 720
Aspect Ratio ..: 4:3
Framerate .....: 23.976 fps

Audio First....: Russian AC3 Dolby Digital; 640.00 kbps; 5.1 Ch; 48 kHz
Audio Second...: English AC3 Dolby Digital; 640.00 kbps; 5.1 Ch; 48 kHz
Subtitle.......: Russian, Ukrainian.

File Size .....: 4.37 GB
Source.........: Blu-ray Disc



General
Complete name : Bembi.1942.DUAL.BDRip.720p.h264.AC3.-HQ-ViDEO.mkv
Format : Matroska
File size : 4.37 GiB
Duration : 1h 9mn
Overall bit rate : 8 948 Kbps
Movie name : Bambi (1942)
Encoded date : UTC 2011-04-12 11:15:03
Writing application : mkvmerge v3.3.0 ('Language') built on Mar 24 2010 14:59:24
Writing library : libebml v0.8.0 + libmatroska v0.9.0

Video
ID : 1
Format : AVC
Format/Info : Advanced Video Codec
Format profile : High@L4.1
Format settings, CABAC : Yes
Format settings, ReFrames : 6 frames
Codec ID : V_MPEG4/ISO/AVC
Duration : 1h 9mn
Bit rate mode : Variable
Bit rate : 7 490 Kbps
Width : 968 pixels
Height : 720 pixels
Display aspect ratio : 4:3
Frame rate : 23.976 fps
Color space : YUV
Chroma subsampling : 4:2:0
Bit depth : 8 bits
Scan type : Progressive
Bits/(Pixel*Frame) : 0.448
Stream size : 3.65 GiB (84%)
Title : Encoded by GYN

Audio #1
ID : 2
Format : AC-3
Format/Info : Audio Coding 3
Mode extension : CM (complete main)
Codec ID : A_AC3
Duration : 1h 9mn
Bit rate mode : Constant
Bit rate : 640 Kbps
Channel(s) : 6 channels
Channel positions : Front: L C R, Side: L R, LFE
Sampling rate : 48.0 KHz
Bit depth : 16 bits
Compression mode : Lossy
Stream size : 320 MiB (7%)
Title : DUB
Language : Russian

Audio #2
ID : 3
Format : AC-3
Format/Info : Audio Coding 3
Mode extension : CM (complete main)
Codec ID : A_AC3
Duration : 1h 9mn
Bit rate mode : Constant
Bit rate : 640 Kbps
Channel(s) : 6 channels
Channel positions : Front: L C R, Side: L R, LFE
Sampling rate : 48.0 KHz
Bit depth : 16 bits
Compression mode : Lossy
Stream size : 320 MiB (7%)
Title : Original
Language : English

Text #1
ID : 4
Format : UTF-8
Codec ID : S_TEXT/UTF8
Codec ID/Info : UTF-8 Plain Text
Language : Russian

Text #2
ID : 5
Format : UTF-8
Codec ID : S_TEXT/UTF8
Codec ID/Info : UTF-8 Plain Text
Language : Ukrainian


Язык: Русский дублированный + Английская дорожка.

Субтитры: Русские, Украинские.

Скриншоты для оценки качества:



Релиз:


   Похожие торренты   Торрент   Размер 
В этой теме нет новых непрочитанных сообщений. Бемби 2 / Бэмби 2 / Bambi II (2006) BDRip от HQCLUB

508 | 14

1.45 ГБ

В этой теме нет новых непрочитанных сообщений. Бэмби / Bambi (1942) BDRip 720p | 60 fps

390 | 16

2.32 ГБ

В этой теме нет новых непрочитанных сообщений. Бэмби / Bambi (1942) BDRip 720p от MediaClub

84 | 162

3.37 ГБ

В этой теме нет новых непрочитанных сообщений. Бэмби / Bambi (1942) BDRip от HQCLUB

474 | 16

1.45 ГБ

В этой теме нет новых непрочитанных сообщений. Бэмби / Bambi (1942) BDRip 1080p | 60 fps

108 | 5

4.23 ГБ

В этой теме нет новых непрочитанных сообщений. Бэмби / Bambi (1942) BDRip-AVC | iPad

200 | 8

882.28 МБ

В этой теме нет новых непрочитанных сообщений. Бэмби / Bambi (1942) BDRip 1080p от MediaClub

42 | 6

5.5 ГБ




Вы не можете начинать темы
Вы не можете отвечать на сообщения
Вы не можете редактировать свои сообщения
Вы не можете удалять свои сообщения
Вы не можете добавлять вложения

Перейти:  
Для Мосгорсуда, Роскомнадзора и рекламодателей: mosgorsud-torrent[собачка]yandex.ru
 Вход
ppkBB3cker v.2 © 2008-2014 @ PPK
[ Time : 0.016s | 13 Queries | GZIP : Off ]
CGP output time : 0.012s | 7 Queries | GZIP : Off

Торрент трекер RUTOR.IN, Не можете зайти на rutor.org? Какой новый адрес рутор? Какое зеркало рутор? Не работает rutor.org и зеркала? Тогда наш торрент специально для вас. Rutor.in неофициальное зеркало rutor. В случае если у Вас заблокирован rutor или вдруг Вы не можете на него зайти, то Вы без труда сможете скачать бесплатно и без рекламы последние новинки кино, игр, сериалов и прочего у нас, на Rutor.in. Не нужно использовать прокси, чтобы зайти на рутор, достаточно воспользоваться нашим ресурсом. Все новые фильмы, игры, сериалы, книги и музыка за 2013 и 2014 годы через торрент бесплатно. Скачивайте фильмы в хорошем качестве, игры для пк, xbox, playstation без регистрации. У нас вы найдете новые Зарубежные сериалы и Русские сериалы 2013, 2014, 2015 годов. Оставайтесь с нами, качайте любимые фильмы, игры, сериалы, книги и музыку.